<?xml version="1.0" standalone="no"?>
<!DOCTYPE svg PUBLIC "-//W3C//DTD SVG 1.1//EN" "http://www.w3.org/Graphics/SVG/1.1/DTD/svg11.dtd">
<svg xmlns="http://www.w3.org/2000/svg">
<defs >
<font id="Arvo" horiz-adv-x="1062" ><font-face
    font-family="Arvo"
    units-per-em="2048"
    panose-1="2 0 0 0 0 0 0 0 0 0"
    ascent="1968"
    descent="-506"
    alphabetic="0" />
<glyph unicode=" " glyph-name="space" horiz-adv-x="492" />
<glyph unicode="!" glyph-name="exclam" horiz-adv-x="866" d="M533 1577H908L622 516H329L533 1577ZM246 145Q246 182 260 214T298 271T354 309T425 323Q461 323 493 309T549 271T587 215T601 145Q601 108 587 76T549 19T493 -19T425 -33Q387 -33 355 -19T298
19T260 75T246 145Z" />
<glyph unicode="&quot;" glyph-name="quotedbl" horiz-adv-x="913" d="M465 1059H246L317 1577L606 1593L465 1059ZM895 1059H676L748 1577L1036 1593L895 1059Z" />
<glyph unicode="#" glyph-name="numbersign" horiz-adv-x="1835" d="M539 1198H738L866 1497H1192L1065 1198H1385L1513 1497H1839L1711 1198H1917L1794 924H1595L1440 561H1645L1522 287H1324L1202 0H874L996 287H678L557 0H225L348 287H143L266 561H465L621
924H416L539 1198ZM795 561H1113L1268 924H949L795 561Z" />
<glyph unicode="$" glyph-name="dollar" horiz-adv-x="1292" d="M344 -229L397 0Q284 32 215 103T133 276H20L80 532H444L426 456Q412 367 463 314T633 260Q689 260 733 275T809 316T857 379T874 459Q874 492 860 516T823 557T768 588T702 612L530 672Q470 692
421 727T336 811T280 919T260 1049Q260 1157 295 1241T395 1386T551 1483T752 1534L805 1763H1137L1079 1514Q1188 1481 1253 1418T1329 1276H1444L1384 1020H1022L1033 1069Q1043 1115 1033 1151T997 1213T932 1251T846 1264Q797 1264 753 1255T676 1225T624 1172T604
1096Q604 1057 620 1033T663 992T720 966T782 944L989 868Q1117 822 1176 729T1235 502Q1235 394 1198 306T1094 151T933 43T725 -15L676 -229H344Z" />
<glyph unicode="%" glyph-name="percent" horiz-adv-x="1927" d="M168 1108Q168 1200 205 1282T308 1427T461 1525T649 1561Q725 1561 788 1534T896 1460T966 1353T991 1225Q991 1136 955 1055T854 911T701 812T510 774Q433 774 370 802T262 876T193 983T168 1108ZM606
1284Q577 1284 551 1274T504 1246T473 1202T461 1145Q461 1105 484 1077T553 1049Q581 1049 608 1060T657 1090T692 1136T705 1192Q705 1235 679 1259T606 1284ZM1565 1540H1948L547 -16H164L1565 1540ZM1104 283Q1104 343 1121 400T1169 508T1245 601T1342 674T1458
722T1587 739Q1663 739 1725 712T1833 638T1902 530T1927 401Q1927 311 1891 230T1791 88T1639 -10T1446 -47Q1370 -47 1307 -20T1199 52T1129 158T1104 283ZM1542 463Q1513 463 1487 453T1440 424T1409 379T1397 319Q1397 282 1421 255T1491 227Q1519 227 1546
238T1594 268T1627 314T1640 371Q1640 414 1614 438T1542 463Z" />
<glyph unicode="&amp;" glyph-name="ampersand" horiz-adv-x="1300" d="M1016 -59L893 107Q804 45 697 10T459 -25Q368 -25 292 8T160 98T73 228T41 385Q41 462 62 521T125 631T225 726T322 794T365 820Q313 891 295 953T276 1085Q276 1187 311 1271T409 1416T560
1510T756 1544Q840 1544 911 1514T1033 1435T1112 1324T1141 1196Q1141 1125 1122 1069T1067 967T982 882T872 805Q853 793 835 782T796 760L929 591Q952 636 968 679T995 764H1286Q1263 655 1223 549T1120 347L1286 137L1016 -59ZM358 408Q358 381 367 356T395
312T439 282T500 270Q560 270 615 289T719 342L520 611Q482 590 452 569T401 524T369 472T358 408ZM758 1022Q806 1053 827 1087T848 1169Q848 1214 820 1246T743 1278Q708 1278 677 1266T623 1231T585 1178T571 1110Q571 1082 581 1052T640 959Q674 976 704 991T758
1022Z" />
<glyph unicode="&apos;" glyph-name="quotesingle" horiz-adv-x="483" d="M465 1059H246L317 1577L606 1593L465 1059Z" />
<glyph unicode="(" glyph-name="parenleft" horiz-adv-x="874" d="M354 -467Q307 -386 272 -291T212 -92T176 118T164 328Q164 524 211 714T350 1084T572 1436T872 1769L1079 1597Q949 1466 842 1322T658 1023T539 703T496 367Q496 281 505 190T533 11T577 -159T639
-307L354 -467Z" />
<glyph unicode=")" glyph-name="parenright" horiz-adv-x="874" d="M623 1769Q670 1688 705 1593T765 1394T801 1185T813 975Q813 778 766 589T627 218T404 -135T104 -467L-102 -295Q28 -165 135 -21T319 279T438 600T481 936Q481 1022 472 1113T444 1292T399
1461T338 1610L623 1769Z" />
<glyph unicode="*" glyph-name="asterisk" horiz-adv-x="983" d="M708 1368L961 1444L983 1188L735 1114L829 922L592 774L500 965L315 770L129 940L310 1132L102 1204L236 1446L444 1372L500 1616H764L708 1368Z" />
<glyph unicode="+" glyph-name="plus" horiz-adv-x="1237" d="M166 723H532L618 1096H915L829 723H1196L1133 449H765L678 72H381L468 449H102L166 723Z" />
<glyph unicode="," glyph-name="comma" horiz-adv-x="532" d="M205 283L510 176L225 -365L20 -287L205 283Z" />
<glyph unicode="-" glyph-name="hyphen" horiz-adv-x="831" d="M143 449L207 723H834L770 449H143Z" />
<glyph unicode="." glyph-name="period" horiz-adv-x="539" d="M102 145Q102 182 116 214T154 271T210 309T281 323Q317 323 349 309T405 271T443 215T457 145Q457 108 443 76T405 19T349 -19T281 -33Q243 -33 211 -19T154 19T116 75T102 145Z" />
<glyph unicode="/" glyph-name="slash" horiz-adv-x="983" d="M860 1556H1137L313 0H31L860 1556Z" />
<glyph unicode="0" glyph-name="zero" horiz-adv-x="1360" d="M551 -14Q430 -14 345 26T206 136T127 303T102 512Q102 622 125 741T194 973T308 1189T466 1367T667 1489T911 1534Q1033 1534 1118 1493T1257 1381T1335 1213T1360 1006Q1360 887 1336 765T1266 530T1150
318T991 145T791 29T551 -14ZM623 293Q682 293 736 325T835 410T918 534T981 680T1022 832T1036 977Q1036 1031 1027 1077T995 1157T935 1211T842 1231Q783 1231 729 1199T629 1112T545 988T481 842T441 690T426 547Q426 492 435 446T468 365T529 312T623 293Z"
/>
<glyph unicode="1" glyph-name="one" horiz-adv-x="813" d="M84 274H258L440 1066L174 926L256 1274L729 1520L874 1518L588 274H760L696 0H20L84 274Z" />
<glyph unicode="2" glyph-name="two" horiz-adv-x="1137" d="M18 260L672 817Q726 861 765 898T830 969T867 1038T879 1110Q879 1135 870 1159T843 1201T799 1230T737 1241Q688 1241 653 1226T592 1183T550 1120T522 1044H193Q220 1162 273 1254T401 1410T573
1507T780 1540Q878 1540 959 1507T1097 1418T1187 1286T1219 1126Q1219 1075 1211 1028T1181 934T1125 842T1038 752L523 307H1020L948 0H-41L18 260Z" />
<glyph unicode="3" glyph-name="three" horiz-adv-x="1204" d="M907 1108Q907 1135 897 1160T867 1206T818 1239T750 1251Q713 1251 681 1239T625 1205T583 1157T559 1098Q556 1087 555 1081T551 1063L193 1065Q214 1170 267 1259T402 1412T588 1513T819 1550Q916
1550 998 1520T1139 1439T1232 1319T1266 1174Q1266 1105 1250 1047T1204 941T1132 858T1038 795Q1062 778 1081 753T1115 695T1137 625T1145 547Q1145 429 1093 326T949 147T732 26T463 -18Q358 -18 275 16T137 110T57 248T47 416Q49 430 49 447T55 487H397Q388
435 394 397T419 333T468 296T537 283Q585 283 630 300T709 347T765 417T786 502Q786 574 742 612T614 651H475L539 924H680Q732 924 774 939T845 979T891 1038T907 1108Z" />
<glyph unicode="4" glyph-name="four" horiz-adv-x="1251" d="M76 670L813 1516H1176L449 668H747L815 961L1130 965L1061 668H1272L1214 414H1003L970 274H1157L1094 0H418L481 274H656L689 414H20L76 670Z" />
<glyph unicode="5" glyph-name="five" horiz-adv-x="1163" d="M502 937Q546 951 596 960T709 969Q796 969 872 944T1005 871T1095 751T1128 588Q1128 449 1076 335T932 140T720 14T459 -31Q367 -31 286 -3T145 77T52 206T23 377L352 461Q347 414 358 377T394 314T452
274T530 260Q588 260 637 282T723 342T779 429T799 530Q799 565 786 597T749 653T691 692T612 707Q580 707 553 704T499 695T448 680T395 659L137 709L324 1516H1286L1214 1210H565L502 937Z" />
<glyph unicode="6" glyph-name="six" horiz-adv-x="1133" d="M1142 1516L698 975H711Q804 975 877 938T1003 840T1082 702T1110 545Q1110 431 1063 330T936 154T752 34T534 -10Q442 -10 371 10T247 65T159 145T102 240T71 341T61 439Q61 499 75 555T112 663T165
760T227 846L755 1516H1142ZM596 719Q483 719 404 613Q383 581 368 542T352 453Q352 417 363 384T396 324T453 283T535 267Q586 267 632 288T714 345T771 430T793 537Q793 620 744 669T596 719Z" />
<glyph unicode="7" glyph-name="seven" horiz-adv-x="1243" d="M143 274H293Q372 392 454 514T618 755T777 987T925 1204H534L494 1032H166L279 1516H1427L1374 1290Q1202 1048 1020 791T662 274H819L756 0H80L143 274Z" />
<glyph unicode="8" glyph-name="eight" horiz-adv-x="1196" d="M860 1544Q951 1544 1028 1517T1160 1440T1247 1316T1278 1149Q1278 1092 1260 1040T1210 940T1133 852T1034 779Q1094 723 1128 651T1163 500Q1163 395 1114 300T977 132T772 16T516 -27Q412 -27
328 8T184 102T93 236T61 393Q61 459 82 519T140 631T230 728T344 807Q298 857 273 917T248 1042Q248 1146 296 1237T427 1397T621 1504T860 1544ZM371 432Q371 397 385 367T424 313T485 276T565 262Q620 262 671 281T762 333T826 408T850 496Q850 530 836 560T797
613T736 649T657 662Q601 662 550 644T458 594T395 520T371 432ZM551 1055Q551 1026 562 1000T595 955T647 924T715 913Q761 913 805 929T883 972T937 1034T958 1108Q958 1138 946 1164T913 1211T861 1243T795 1255Q747 1255 703 1238T626 1193T572 1129T551 1055Z"
/>
<glyph unicode="9" glyph-name="nine" horiz-adv-x="1118" d="M92 0L540 549H526Q433 549 360 586T234 684T155 822T127 979Q127 1055 148 1126T208 1258T301 1371T419 1458T555 1514T703 1534Q796 1534 867 1514T990 1459T1078 1379T1135 1284T1166 1183T1176
1085Q1176 1025 1162 969T1125 862T1071 765T1010 678L479 0H92ZM641 805Q754 805 833 911Q854 942 869 981T885 1071Q885 1107 874 1140T841 1200T784 1241T702 1257Q651 1257 605 1236T523 1179T466 1094T444 987Q444 904 493 855T641 805Z" />
<glyph unicode=":" glyph-name="colon" horiz-adv-x="600" d="M245 944T259 976T297 1033T353 1071T424 1085Q460 1085 492 1071T548 1033T586 977T600 907Q600 870 586 838T548 781T492 743T424 729Q386 729 354 743T297 781T259 837T245 907Q245 944 259 976ZM82
182T96 214T134 271T190 309T261 323Q297 323 329 309T385 271T423 215T437 145Q437 108 423 76T385 19T329 -19T261 -33Q223 -33 191 -19T134 19T96 75T82 145Q82 182 96 214Z" />
<glyph unicode=";" glyph-name="semicolon" horiz-adv-x="610" d="M256 944T270 976T308 1033T364 1071T435 1085Q471 1085 503 1071T559 1033T597 977T611 907Q611 870 597 838T559 781T503 743T435 729Q397 729 365 743T308 781T270 837T256 907Q256 944 270
976ZM143 283L448 176L164 -365L-41 -287L143 283Z" />
<glyph unicode="&lt;" glyph-name="less" horiz-adv-x="971" d="M158 705L971 975L903 688L453 564L846 434L788 180L102 465L158 705Z" />
<glyph unicode="=" glyph-name="equal" horiz-adv-x="1176" d="M166 526H1038L975 252H102L166 526ZM281 1024H1153L1090 750H217L281 1024Z" />
<glyph unicode="&gt;" glyph-name="greater" horiz-adv-x="971" d="M854 451L41 180L109 467L558 590L166 721L223 975L909 690L854 451Z" />
<glyph unicode="?" glyph-name="question" horiz-adv-x="1085" d="M305 471Q317 534 333 582T370 667T417 734T475 790T547 843T633 899Q683 932 714 962T762 1022T785 1080T791 1139Q791 1163 783 1183T761 1218T729 1241T690 1249Q669 1249 646 1242T601 1217T563
1167T535 1085L205 1118Q228 1226 274 1307T387 1442T540 1524T729 1552Q817 1552 893 1524T1025 1447T1114 1328T1147 1178Q1147 1118 1138 1063T1103 957T1031 857T913 762Q875 737 842 718T780 679T727 641T684 597T650 542T625 471H305ZM239 182T253 214T291
271T347 309T418 323Q454 323 486 309T542 271T580 215T594 145Q594 108 580 76T542 19T486 -19T418 -33Q380 -33 348 -19T291 19T253 75T239 145Q239 182 253 214Z" />
<glyph unicode="@" glyph-name="at" horiz-adv-x="2140" d="M1677 956L1528 309Q1522 288 1522 270T1528 239T1545 219T1573 211Q1622 211 1660 237T1726 305T1773 397T1805 496T1822 585T1827 647Q1827 757 1787 854T1674 1025T1497 1141T1266 1184Q1149 1184
1039 1156T833 1075T657 950T520 787T431 591T399 371Q399 242 438 137T550 -43T723 -158T948 -199Q1047 -199 1152 -168T1364 -80L1448 -307Q1308 -382 1175 -422T907 -463Q793 -463 691 -435T502 -354T345 -229T226 -66T150 128T123 346Q123 502 164 644T279
908T459 1130T693 1300T970 1409T1280 1448Q1402 1448 1510 1420T1710 1340T1873 1219T1995 1063T2072 880T2099 680Q2099 586 2080 498T2026 333T1938 191T1821 80T1677 8T1509 -18Q1428 -18 1370 10T1278 92Q1214 39 1138 12T981 -16Q886 -16 810 17T681 106T598
236T569 393Q569 486 594 564T662 707T762 820T884 902T1018 952T1153 969Q1227 969 1280 951T1379 904L1391 956H1677ZM1071 276T1100 284T1158 307T1211 344T1259 394L1297 556Q1290 585 1275 609T1239 650T1192 676T1135 686Q1087 686 1041 666T959 611T901
531T879 434Q879 398 891 369T924 319T976 287T1042 276Q1071 276 1100 284Z" />
<glyph unicode="A" glyph-name="A" horiz-adv-x="1479" d="M907 274H991L975 483H557L446 274H573L510 0H-102L-39 274H89L778 1516H1214L1328 274H1520L1456 0H844L907 274ZM711 772H954L924 1174L711 772Z" />
<glyph unicode="B" glyph-name="B" horiz-adv-x="1516" d="M125 274H278L502 1241H330L393 1516H1159Q1255 1516 1329 1487T1453 1407T1530 1285T1556 1133Q1556 1048 1528 969T1435 826Q1387 781 1317 747Q1325 741 1331 735Q1382 688 1408 627T1434 496Q1434
372 1394 279T1278 124T1097 31T860 0H61L125 274ZM710 627L628 274H877Q929 274 969 289T1037 333T1079 401T1094 489Q1094 518 1085 543T1059 587T1016 616T956 627H710ZM853 1241L774 901H1006Q1051 901 1090 914T1157 953T1202 1014T1219 1094Q1219 1124 1210
1150T1182 1197T1137 1229T1073 1241H853Z" />
<glyph unicode="C" glyph-name="C" horiz-adv-x="1493" d="M1199 1123T1134 1165T971 1208Q903 1208 839 1187T719 1127T616 1035T536 919T484 786T465 641Q465 566 486 505T546 399T641 330T766 305Q821 305 869 320T958 361T1034 423T1096 500L1413 342Q1299
162 1127 66T727 -31Q591 -31 477 15T279 146T149 347T102 608Q102 750 138 874T237 1103T387 1289T575 1427T788 1514T1014 1544Q1105 1544 1182 1525T1323 1471T1425 1398T1487 1329H1677L1614 1055H1225Q1199 1123 1134 1165Z" />
<glyph unicode="D" glyph-name="D" horiz-adv-x="1585" d="M412 1516H1020Q1157 1516 1272 1474T1470 1353T1600 1157T1647 893Q1647 768 1618 654T1533 440T1395 260T1207 121T972 32T692 0H61L125 274H280L504 1241H348L412 1516ZM855 1241L630 274H737Q810
274 878 295T1007 355T1118 448T1205 567T1262 708T1282 864Q1282 969 1256 1041T1185 1157T1082 1221T961 1241H855Z" />
<glyph unicode="E" glyph-name="E" horiz-adv-x="1505" d="M393 1516H1690L1571 999H1221L1276 1241H855L779 915H1116L1049 625H712L630 274H1026L1087 543H1438L1313 0H61L125 274H280L504 1241H330L393 1516Z" />
<glyph unicode="F" glyph-name="F" horiz-adv-x="1450" d="M348 1516H1653L1534 999H1186L1241 1241H851L770 893H1133L1065 602H702L626 274H801L737 0H61L125 274H276L500 1241H285L348 1516Z" />
<glyph unicode="G" glyph-name="G" horiz-adv-x="1575" d="M1133 0L1186 228Q1146 164 1083 104T927 6T737 -31Q606 -31 494 15T300 146T170 347T123 608Q123 750 159 874T258 1103T408 1289T596 1427T808 1514T1034 1544Q1112 1544 1186 1528T1324 1482T1439
1413T1524 1329H1702L1638 1055H1249Q1236 1086 1213 1115T1156 1166T1082 1201T991 1214Q889 1214 797 1166T636 1038T526 855T485 641Q485 566 505 503T564 394T658 321T784 295Q849 295 911 314T1026 368T1115 446T1171 535H852L915 809H1620L1432 0H1133Z"
/>
<glyph unicode="H" glyph-name="H" horiz-adv-x="1946" d="M1413 1516H2089L2025 1241H1870L1646 274H1821L1757 0H1081L1145 274H1296L1386 662H720L630 274H801L737 0H61L125 274H280L504 1241H332L395 1516H1071L1008 1241H855L783 932H1448L1520 1241H1350L1413
1516Z" />
<glyph unicode="I" glyph-name="I" horiz-adv-x="926" d="M393 1516H1069L1006 1241H855L630 274H801L737 0H61L125 274H280L504 1241H330L393 1516Z" />
<glyph unicode="J" glyph-name="J" horiz-adv-x="782" d="M352 1516H1028L965 1241H816L569 172Q527 91 494 48T373 -81Q296 -160 199 -246L-82 -223Q2 -133 50 -79T147 45T229 205L468 1241H289L352 1516Z" />
<glyph unicode="K" glyph-name="K" horiz-adv-x="1745" d="M1370 1243L1434 1516H2052L1989 1241H1855L1213 764L1563 274H1710L1649 0H1085L1149 274L772 793L1370 1243ZM393 1516H1069L1006 1241H855L630 274H801L737 0H61L125 274H280L504 1241H330L393 1516Z" />
<glyph unicode="L" glyph-name="L" horiz-adv-x="1317" d="M393 1516H1069L1006 1241H853L628 274H915Q951 274 976 297T1012 356L1061 557H1399L1272 0H61L125 274H278L502 1241H330L393 1516Z" />
<glyph unicode="M" glyph-name="M" horiz-adv-x="2406" d="M115 274H251L475 1241H301L365 1516H1053L1234 500L1853 1516H2560L2497 1241H2343L2118 274H2267L2204 0H1591L1655 274H1770L1959 1088L1282 18H981L782 1100L583 274H727L664 0H51L115 274Z" />
<glyph unicode="N" glyph-name="N" horiz-adv-x="1786" d="M1358 1516H1970L1907 1241H1777L1491 0H1147L761 935L608 274H737L674 0H61L125 274H260L483 1241H319L383 1516H899L1273 580L1427 1241H1294L1358 1516Z" />
<glyph unicode="O" glyph-name="O" horiz-adv-x="1597" d="M748 -31Q612 -31 498 15T300 146T170 347T123 608Q123 750 159 874T258 1103T408 1289T596 1427T808 1514T1034 1544Q1176 1544 1291 1497T1488 1366T1614 1163T1659 903Q1659 764 1626 641T1531 414T1386
228T1201 88T985 0T748 -31ZM786 305Q853 305 917 326T1037 386T1140 477T1220 593T1273 727T1292 872Q1292 947 1272 1008T1212 1114T1117 1183T991 1208Q889 1208 797 1161T636 1035T526 854T485 641Q485 566 506 505T566 399T661 330T786 305Z" />
<glyph unicode="P" glyph-name="P" horiz-adv-x="1354" d="M393 1516H1098Q1202 1516 1284 1485T1422 1398T1508 1269T1538 1108Q1538 998 1503 899T1389 726T1184 607T877 563H697L630 274H801L737 0H61L125 274H280L504 1241H330L393 1516ZM855 1241L760 834H866Q934
834 989 848T1084 893T1145 968T1167 1075Q1167 1151 1116 1196T961 1241H855Z" />
<glyph unicode="Q" glyph-name="Q" horiz-adv-x="1556" d="M619 -23Q544 -12 476 15Q362 62 279 146T149 347T102 608Q102 750 138 874T237 1103T387 1289T575 1427T788 1514T1014 1544Q1156 1544 1271 1497T1468 1366T1594 1163T1638 903Q1638 764 1605 641T1510
414T1365 228T1180 88T963 0Q922 -11 881 -18L950 -45Q1050 -105 1112 -106Q1170 -106 1215 -87T1284 -35T1323 37L1522 -74Q1496 -147 1450 -206T1342 -307T1211 -372T1067 -395Q1029 -395 994 -385T925 -358T858 -324T791 -289T721 -263T647 -252Q622 -252 604
-254T561 -264L619 -23ZM766 305Q833 305 896 326T1016 386T1119 477T1200 593T1253 727T1272 872Q1272 947 1251 1008T1191 1114T1097 1183T971 1208Q903 1208 839 1187T719 1127T616 1035T536 919T484 786T465 641Q465 566 486 505T546 399T641 330T766 305Z"
/>
<glyph unicode="R" glyph-name="R" horiz-adv-x="1483" d="M373 1516H1180Q1280 1516 1353 1482T1473 1394T1542 1270T1565 1128Q1565 1030 1537 953T1450 816T1334 728T1253 689Q1263 680 1280 660T1311 596T1327 492L1333 274H1477L1413 0H963L987 360Q991 424
983 470T950 546T884 590T782 604H686L609 274H737L674 0H61L125 274H259L484 1241H309L373 1516ZM834 1241L748 874H938Q1000 874 1050 886T1137 925T1192 991T1212 1085Q1212 1156 1171 1198T1032 1241H834Z" />
<glyph unicode="S" glyph-name="S" horiz-adv-x="1268" d="M80 532H444Q417 431 425 389T458 319T527 276T633 260Q689 260 733 275T809 316T857 379T874 459Q874 492 860 516T823 557T768 588T702 612L530 672Q470 692 421 727T336 811T280 919T260 1049Q260
1172 306 1264T434 1418T631 1511T883 1542Q982 1542 1063 1519T1202 1458T1291 1372T1329 1276H1444L1384 1020H1022Q1043 1113 1034 1149T999 1211T934 1250T846 1264Q797 1264 753 1255T676 1225T624 1172T604 1096Q604 1057 620 1033T673 990T782 944L989 868Q1117
822 1176 729T1235 502Q1235 378 1187 281T1052 115T847 11T586 -25Q481 -25 395 1T248 74T163 176T132 276H20L80 532Z" />
<glyph unicode="T" glyph-name="T" horiz-adv-x="1368" d="M342 274H499L724 1241H530L487 1055H143L250 1516H1675L1569 1055H1225L1268 1241H1074L849 274H1018L954 0H279L342 274Z" />
<glyph unicode="U" glyph-name="U" horiz-adv-x="1534" d="M281 1516H893L829 1241H713L567 612Q546 512 555 457T594 361T668 303T772 285Q830 285 876 301T960 356T1025 457T1075 612L1220 1241H1083L1147 1516H1759L1696 1241H1566L1411 567Q1375 409 1314
296T1167 110T970 3T721 -31Q608 -31 514 2T351 96T247 242T206 424T225 633L367 1241H217L281 1516Z" />
<glyph unicode="V" glyph-name="V" horiz-adv-x="1399" d="M1114 1516H1726L1663 1241H1543L834 0H426L319 1241H164L227 1516H840L776 1241H663L725 457L1168 1241H1051L1114 1516Z" />
<glyph unicode="W" glyph-name="W" horiz-adv-x="2046" d="M1915 1516H2527L2464 1241H2345L1696 0H1286L1278 975L801 0H391L322 1241H158L221 1516H834L770 1241H645L684 412L1214 1516H1575L1591 416L2008 1241H1851L1915 1516Z" />
<glyph unicode="X" glyph-name="X" horiz-adv-x="1618" d="M1208 1516H1884L1821 1241H1696L1138 750L1450 274H1620L1556 0H881L944 274H1062L892 534L597 274H698L635 0H-41L23 274H144L728 786L431 1241H258L322 1516H997L934 1241H817L973 1002L1245 1241H1145L1208
1516Z" />
<glyph unicode="Y" glyph-name="Y" horiz-adv-x="1393" d="M248 1516H860L797 1241H692L825 913L850 939L1112 1241H1024L1087 1516H1700L1636 1241H1535L941 615L862 274H1032L969 0H293L356 274H516L598 635L318 1241H184L248 1516Z" />
<glyph unicode="Z" glyph-name="Z" horiz-adv-x="1320" d="M1455 1202L481 274H911L970 532H1318L1195 0H20L91 313L1047 1241H642L583 979H239L364 1516H1527L1455 1202Z" />
<glyph unicode="[" glyph-name="bracketleft" horiz-adv-x="772" d="M451 1835H1018L961 1589H737L360 -41H584L526 -289H-41L451 1835Z" />
<glyph unicode="\" glyph-name="backslash" horiz-adv-x="829" d="M164 1589H399L584 -88H342L164 1589Z" />
<glyph unicode="]" glyph-name="bracketright" horiz-adv-x="711" d="M412 1589H188L246 1835H813L322 -289H-246L-188 -41H35L412 1589Z" />
<glyph unicode="^" glyph-name="asciicircum" horiz-adv-x="1073" d="M932 1516L1151 725H903L765 1249L371 725H102L702 1516H932Z" />
<glyph unicode="_" glyph-name="underscore" horiz-adv-x="1083" d="M-23 -90H1001L942 -346H-82L-23 -90Z" />
<glyph unicode="`" glyph-name="grave" horiz-adv-x="774" d="M461 1178L168 1464V1489H494L690 1178H461Z" />
<glyph unicode="a" glyph-name="a" horiz-adv-x="1391" d="M786 79Q749 40 688 13Q623 -16 535 -16Q454 -16 376 13T238 99T140 242T102 438Q102 534 127 617T196 770T300 894T432 985T583 1041T745 1061Q791 1061 823 1055T898 1037T996 985L1008 1036H1348L1171
274H1362L1298 0H768L786 79ZM823 372L867 427L917 643Q905 666 886 687T839 725T777 749T709 758Q655 758 606 737T521 679T462 592T440 485Q440 437 455 401T496 341T556 305T629 293Q662 293 696 301T763 327T823 372Z" />
<glyph unicode="b" glyph-name="b" horiz-adv-x="1327" d="M264 1556H801L665 967Q702 1005 762 1032Q827 1061 915 1061Q1000 1061 1078 1032T1216 945T1312 802T1348 606Q1348 469 1298 355T1160 158T956 30T705 -16Q668 -16 631 -10T560 6T498 31Q473 43 455
57L442 0H102L398 1282H201L264 1556ZM627 672Q603 649 584 619L534 400Q545 377 561 359Q583 336 611 320T673 296T741 287Q795 287 844 308T929 366T988 452T1010 559Q1010 607 995 643T954 703T894 739T821 752Q788 752 754 744T687 717T627 672Z" />
<glyph unicode="c" glyph-name="c" horiz-adv-x="1171" d="M852 668Q836 710 793 736T700 762Q644 762 595 740T508 678T450 586T428 473Q428 428 442 393T481 332T537 293T604 279Q687 279 742 317T834 418L1106 270Q1074 208 1022 154T901 60T749 -2T571 -25Q470
-25 385 11T236 110T138 257T102 436Q102 579 153 695T292 894T493 1022T735 1067Q815 1067 883 1044T1006 981Q1031 963 1053 942H1245L1182 668H852V668Z" />
<glyph unicode="d" glyph-name="d" horiz-adv-x="1405" d="M920 1556H1466L1171 274H1362L1298 0H768L786 78Q770 60 748 44Q723 26 690 12T618 -10T535 -18Q433 -18 353 19T217 118T132 263T102 438Q102 534 127 617T196 770T300 894T432 985T583 1041T745 1061Q780
1061 817 1056T888 1040T952 1016Q978 1004 995 989L1063 1282H856L920 1556ZM765 343Q826 376 867 432L919 658Q910 676 896 692Q874 716 845 732T783 756T715 764Q661 764 614 744T530 687T474 602T453 496Q453 453 466 418T503 359T558 321T627 307Q699 307
765 343Z" />
<glyph unicode="e" glyph-name="e" horiz-adv-x="1178" d="M428 440Q430 416 436 394Q446 356 469 328T531 283T623 266Q663 266 696 274T760 296T817 331T872 375L1092 182Q991 74 859 24T575 -27Q477 -27 391 5T241 96T140 241T102 432Q102 575 153 692T292
892T493 1021T735 1067Q836 1067 921 1032T1067 937T1163 799T1198 637Q1198 617 1196 592T1190 541T1180 488T1167 440H428ZM471 680Q467 673 464 666H897Q895 693 880 718T839 764T779 796T702 809Q652 809 607 794T527 751T471 680Z" />
<glyph unicode="f" glyph-name="f" horiz-adv-x="801" d="M182 1036H384L424 1206Q446 1303 491 1373T597 1490T735 1557T895 1579Q953 1579 1000 1570T1081 1546T1138 1516T1169 1485L985 1253Q968 1270 948 1279T889 1288Q844 1288 805 1258T752 1169L721 1036H942L874
743H652L369 -471H31L315 743H115L182 1036Z" />
<glyph unicode="g" glyph-name="g" horiz-adv-x="1303" d="M777 79Q740 47 676 24Q609 0 526 0Q447 0 370 28T231 111T132 248T94 438Q94 572 143 686T279 883T483 1014T737 1061Q776 1061 814 1055T887 1038T987 989L1004 1061H1343L1108 43Q1073 -110 1011 -209T864
-367T674 -448T449 -471Q290 -471 174 -435T-20 -338L156 -74Q216 -117 294 -145T463 -174Q514 -174 562 -165T651 -131T723 -63T770 49L777 79ZM817 378Q839 399 857 427L911 659Q876 713 843 730T777 756T707 764Q653 764 604 743T519 685T460 599T438 492Q438
444 453 408T494 348T554 312T627 299Q660 299 693 307T758 333T817 378Z" />
<glyph unicode="h" glyph-name="h" horiz-adv-x="1370" d="M893 557Q901 595 898 626T882 680T848 715T799 727Q748 727 673 688Q633 667 590 635L444 0H94L390 1282H203L266 1556H803L663 952L664 953Q709 988 757 1013T856 1053T961 1067Q1048 1067 1113 1038T1217
953T1266 818T1253 639L1169 274H1360L1296 0H764L893 557Z" />
<glyph unicode="i" glyph-name="i" horiz-adv-x="778" d="M207 1036H739L563 274H754L690 0H158L334 762H143L207 1036ZM434 1370Q434 1407 447 1439T485 1496T541 1534T612 1548Q648 1548 680 1534T736 1496T774 1440T788 1370Q788 1333 774 1301T736 1244T680
1206T612 1192Q574 1192 542 1206T485 1244T448 1300T434 1370Z" />
<glyph unicode="j" glyph-name="j" horiz-adv-x="707" d="M176 1036H745L506 -2Q477 -128 426 -216T303 -361T136 -443T-72 -469L-33 -205Q0 -205 31 -194T88 -161T133 -107T162 -33L346 762H113L176 1036ZM414 1370Q414 1407 427 1439T465 1496T521 1534T592
1548Q628 1548 660 1534T716 1496T754 1440T768 1370Q768 1333 754 1301T716 1244T660 1206T592 1192Q554 1192 522 1206T465 1244T428 1300T414 1370Z" />
<glyph unicode="k" glyph-name="k" horiz-adv-x="1311" d="M262 1556H801L599 682H713L872 851L915 1036H1372L1309 762H1169L934 539L1069 274H1225L1161 0H860L664 406H535L442 0H102L398 1282H199L262 1556Z" />
<glyph unicode="l" glyph-name="l" horiz-adv-x="729" d="M262 1556H801L505 274H694L631 0H102L398 1282H199L262 1556Z" />
<glyph unicode="m" glyph-name="m" horiz-adv-x="2083" d="M207 1036H725L706 943Q762 986 810 1010T909 1047T1014 1061Q1146 1061 1227 995Q1280 952 1304 887Q1382 963 1471 1010Q1567 1061 1675 1061Q1762 1061 1827 1032T1932 949T1981 817T1968 639L1884
274H2073L2009 0H1479L1608 557Q1616 595 1613 626T1597 680T1563 715T1513 727Q1462 727 1387 688Q1349 668 1306 636L1159 0H809L938 557Q947 595 944 626T928 680T894 715T844 727Q793 727 718 688Q679 668 636 636L489 0H139L315 762H143L207 1036Z" />
<glyph unicode="n" glyph-name="n" horiz-adv-x="1421" d="M207 1036H733L717 951V952Q762 986 810 1010T909 1047T1014 1061Q1101 1061 1166 1032T1270 949T1319 817T1307 639L1222 274H1411L1348 0H817L946 557Q955 595 952 626T936 680T902 715T852 727Q801
727 726 688Q687 668 645 636L498 0H147L323 762H143L207 1036Z" />
<glyph unicode="o" glyph-name="o" horiz-adv-x="1182" d="M102 436Q102 579 153 695T292 894T493 1022T735 1067Q833 1067 918 1031T1067 933T1166 786T1202 604Q1202 467 1154 352T1021 153T821 22T571 -25Q470 -25 385 11T236 110T138 257T102 436ZM428 473Q428
429 441 393T477 330T533 289T604 274Q656 274 705 296T792 358T854 451T877 567Q877 618 863 655T824 718T768 755T700 768Q643 768 594 745T508 681T450 588T428 473Z" />
<glyph unicode="p" glyph-name="p" horiz-adv-x="1366" d="M203 1036H723L712 963Q749 1003 811 1031Q877 1061 965 1061Q1049 1061 1127 1032T1265 945T1361 802T1397 606Q1397 510 1372 427T1303 274T1199 151T1067 60T916 4T754 -16Q717 -16 680 -10T609 6T547
31Q521 43 503 57L444 -197H645L582 -471H41L327 762H139L203 1036ZM676 672Q653 650 634 621L583 401Q593 378 609 360Q631 336 660 320T723 296T791 287Q845 287 893 308T978 366T1037 452T1059 559Q1059 607 1044 643T1003 703T943 739T870 752Q837 752 803
744T736 717T676 672Z" />
<glyph unicode="q" glyph-name="q" horiz-adv-x="1317" d="M793 80Q757 40 694 13Q629 -16 541 -16Q460 -16 383 13T245 99T147 242T109 438Q109 534 133 617T202 770T306 894T438 985T589 1041T752 1061Q786 1061 823 1055T894 1039T957 1014Q984 1001 1003 985L1018
1036H1354L1069 -197H1251L1188 -471H666L793 80ZM829 372Q853 395 872 425L923 643Q911 666 894 685Q873 709 845 725T783 749T715 758Q661 758 612 737T527 679T468 592T446 485Q446 437 461 401T502 341T562 305T635 293Q668 293 702 301T769 327T829 372Z"
/>
<glyph unicode="r" glyph-name="r" horiz-adv-x="1145" d="M1153 633H827L852 737Q818 737 790 730T735 709T683 674Q666 660 649 643L563 274H780L717 0H158L334 762H143L207 1036H737L717 946Q758 983 815 1008Q878 1036 963 1036H1247L1153 633Z" />
<glyph unicode="s" glyph-name="s" horiz-adv-x="1018" d="M761 773T722 792Q681 813 616 813Q589 813 565 809T522 795T494 771T483 737Q483 722 495 706T543 682L707 647Q784 630 838 599T926 528T975 443T991 352Q991 249 949 177T839 58T684 -9T510 -31Q363
-31 276 9Q228 32 196 66H31L94 340H393Q386 297 391 278T414 243T457 219T516 211Q585 211 625 236T666 303Q666 328 648 346T582 377L451 410Q380 428 327 460T237 535T183 626T164 727Q164 811 201 875T303 981T450 1045T625 1067Q691 1067 746 1056T845 1024Q870
1013 890 1001H1100L1036 727H766Q761 773 722 792Z" />
<glyph unicode="t" glyph-name="t" horiz-adv-x="890" d="M145 1036H338L397 1284L780 1448L682 1036H872L809 762H617L530 391Q515 335 517 302T538 255T584 240Q605 240 629 244T682 256L686 27Q654 15 623 5T558 -11T485 -21T401 -25Q329 -25 275 -9T189 47T151
151T168 315L273 762H82L145 1036Z" />
<glyph unicode="u" glyph-name="u" horiz-adv-x="1356" d="M846 1036H1323L1146 274H1337L1274 0H774L793 81Q762 56 728 37Q685 13 634 1T522 -12Q420 -12 339 27T224 128T184 264T201 426L278 762H111L174 1036H662L526 451Q516 408 522 374T547 315T596 277T666
264Q698 264 730 275T790 305T846 355L940 762H782L846 1036Z" />
<glyph unicode="v" glyph-name="v" horiz-adv-x="1133" d="M104 1036H616L553 762H472L541 341L799 762H711L774 1036H1286L1223 762H1127L635 0H297L156 762H41L104 1036Z" />
<glyph unicode="w" glyph-name="w" horiz-adv-x="1780" d="M94 1036H606L543 762H476L500 446L840 1036H1174L1235 406L1440 762H1348L1411 1036H1923L1860 762H1764L1305 0H969L903 614H899L539 0H215L133 762H31L94 1036Z" />
<glyph unicode="x" glyph-name="x" horiz-adv-x="1237" d="M678 274H751L654 392L497 274H571L508 0H10L74 274H149L477 538L302 762H180L244 1036H756L692 762H612L701 658L837 762H774L838 1036H1350L1286 762H1185L880 516L1069 274H1176L1112 0H614L678 274Z" />
<glyph unicode="y" glyph-name="y" horiz-adv-x="1126" d="M106 1036H618L555 762H478L544 369L790 762H705L768 1036H1280L1217 762H1136L502 -197H627L553 -471H-20L53 -197H189L315 3L148 762H43L106 1036Z" />
<glyph unicode="z" glyph-name="z" horiz-adv-x="1150" d="M62 164L636 770H430L394 614H134L230 1036H1137L1096 856L518 268H740L783 451H1043L940 0H25L62 164Z" />
<glyph unicode="{" glyph-name="braceleft" horiz-adv-x="817" d="M1117 1784L1042 1456Q1019 1455 1000 1453T965 1447Q942 1441 926 1431T897 1403T877 1358T859 1292L773 922Q764 881 751 849T708 782T617 722Q643 706 665 678T688 601T676 502L589 123Q579
78 578 49T587 3T626 -21T700 -31L628 -338Q525 -346 431 -346Q406 -346 384 -344T331 -336T272 -314T224 -270T197 -205T191 -134T197 -74T205 -30T212 2L286 324Q306 410 312 463T313 549T292 595T251 614T118 629L163 819Q263 828 309 841T379 879T421 943T453
1048L544 1444Q552 1476 560 1505T586 1580T638 1669T715 1740T810 1780T925 1792Q1019 1792 1068 1788T1117 1784Z" />
<glyph unicode="|" glyph-name="bar" horiz-adv-x="631" d="M522 1729H795L334 -270H61L522 1729Z" />
<glyph unicode="}" glyph-name="braceright" horiz-adv-x="938" d="M-27 -10Q-4 -9 15 -7T53 0T89 15T118 43T138 88T156 154L242 524Q270 614 314 661T398 724Q333 779 329 829T332 914T426 1323Q436 1368 437 1397T428 1443T389 1467T315 1477L387 1784Q387
1784 438 1788T584 1792Q654 1788 684 1782T743 1760T791 1716T818 1651T823 1566T803 1444L729 1122Q709 1036 703 983T702 897T723 851T764 832T897 817L852 627Q752 618 702 604T631 567T594 503T562 398L472 -20Q465 -50 440 -120T381 -231T304 -298T207 -335T90
-346Q-4 -346 -102 -338L-27 -10Z" />
<glyph unicode="~" glyph-name="asciitilde" horiz-adv-x="905" d="M-8 512Q-8 542 -3 578T13 650T45 721T95 781T167 824T264 840Q288 840 319 829T386 802T458 767T529 732T593 706T645 696Q692 696 714 723T745 811L930 770Q930 725 918 670T872 565T782 481T635
446Q580 446 527 469T426 519T335 568T260 590Q241 590 224 585T194 566T173 530T164 475L-8 512Z" />
<glyph unicode="&#xa1;" glyph-name="exclamdown" horiz-adv-x="948" d="M559 -543H184L471 518H764L559 -543ZM846 889Q846 852 832 820T794 763T738 725T667 711Q631 711 599 725T543 763T505 819T491 889Q491 926 505 958T543 1015T599 1053T667 1067Q705 1067
737 1053T794 1015T832 959T846 889V889Z" />
<glyph unicode="&#xa2;" glyph-name="cent" horiz-adv-x="1171" d="M295 -242L356 24Q298 52 251 95T171 191T120 306T102 436Q102 558 140 661T244 843T399 976T592 1052L657 1329H989L919 1030Q994 997 1053 942H1245L1182 668H852Q836 710 793 736T700 762Q644
762 595 740T508 678T450 586T428 473Q428 428 442 393T481 332T537 293T604 279Q687 279 742 317T834 418L1106 270Q1079 217 1037 170T940 85T820 21T679 -16L627 -242H295Z" />
<glyph unicode="&#xa3;" glyph-name="sterling" horiz-adv-x="1180" d="M209 829H308L307 874Q307 1019 350 1128T465 1311T632 1421T831 1458Q938 1458 1019 1431T1153 1348T1227 1211T1235 1018L909 1006Q917 1046 913 1075T895 1125T862 1155T817 1165Q788
1165 761 1154T712 1119T679 1056T666 961Q669 866 673 829H940L883 584H712Q711 508 683 426T604 274H1024L961 0H61L125 274H286Q312 328 329 392T344 491T335 584H152L209 829Z" />
<glyph unicode="&#xa4;" glyph-name="currency" horiz-adv-x="1497" d="M270 662Q270 763 304 854T398 1021L256 1229L559 1458L708 1241Q760 1260 814 1270T926 1280Q983 1280 1034 1267T1132 1229L1386 1452L1599 1204L1346 983Q1360 945 1368 904T1376 821Q1376
719 1341 628T1245 459L1378 268L1075 41L935 240Q883 222 829 213T719 203Q661 203 608 216T508 256L274 53L61 299L297 505Q283 542 277 581T270 662V662ZM563 694Q563 651 577 614T618 550T681 508T764 492Q824 492 881 516T982 581T1054 676T1081 791Q1081
834 1067 871T1026 936T962 979T881 995Q820 995 763 971T662 905T590 810T563 694V694Z" />
<glyph unicode="&#xa5;" glyph-name="yen" horiz-adv-x="1511" d="M264 1516H877L813 1241H700L839 924L1121 1241H1040L1104 1516H1716L1653 1241H1542L1219 924H1364L1307 676H959L943 604H1290L1233 356H886L867 274H1049L985 0H309L373 274H528L547 356H184L242
604H604L619 676H258L315 924H488L327 1241H201L264 1516Z" />
<glyph unicode="&#xa6;" glyph-name="brokenbar" horiz-adv-x="647" d="M423 1729H696L521 979H249L423 1729ZM135 481H407L235 -268H-37L135 481Z" />
<glyph unicode="&#xa7;" glyph-name="section" horiz-adv-x="1223" d="M2 72H371L353 -5Q353 -5 353 -5T350 -24T353 -73T379 -124T432 -156T514 -168Q558 -168 592 -157T649 -126T685 -80T698 -23Q698 2 687 18T657 47T616 67T571 84L375 152Q324 170 283 202T212
280T168 384T152 510Q152 633 203 720T343 864Q313 909 296 966T279 1096Q279 1206 323 1290T445 1432T626 1518T850 1548Q947 1548 1024 1526T1157 1469T1243 1388T1281 1296H1389L1325 1022H954L972 1100Q976 1137 968 1167T939 1218T889 1250T821 1262Q786 1262
754 1255T697 1231T658 1190T643 1130Q643 1100 657 1082T694 1052T745 1032T799 1014L942 962Q1009 937 1058 911T1138 848T1185 757T1200 623Q1200 570 1187 520T1150 423T1092 335T1014 259Q1043 217 1059 160T1075 35Q1075 -76 1030 -168T906 -328T717 -432T481
-469Q398 -469 325 -451T194 -399T100 -315T50 -203H-61L2 72ZM518 547Q518 523 527 507T552 479T586 460T627 445L698 419Q728 425 751 438T790 471T814 512T823 561Q823 589 809 607T765 642L673 678Q644 677 616 670T566 647T531 608T518 547Z" />
<glyph unicode="&#xa8;" glyph-name="dieresis" horiz-adv-x="940" d="M47 1343Q47 1380 60 1412T98 1469T154 1508T225 1522Q261 1522 293 1508T349 1470T387 1413T401 1343Q401 1306 387 1274T349 1217T293 1179T225 1165Q187 1165 155 1179T98 1217T61 1273T47
1343ZM526 1343Q526 1380 540 1412T578 1469T634 1508T705 1522Q741 1522 773 1508T829 1470T867 1413T881 1343Q881 1306 867 1274T829 1217T773 1179T705 1165Q667 1165 635 1179T578 1217T540 1273T526 1343Z" />
<glyph unicode="&#xa9;" glyph-name="copyright" horiz-adv-x="1919" d="M102 831Q102 949 132 1058T218 1263T352 1436T525 1569T729 1655T958 1686Q1076 1686 1186 1656T1391 1570T1565 1436T1700 1263T1786 1059T1817 831Q1817 712 1787 603T1700 398T1566
225T1392 92T1186 6T958 -25Q839 -25 730 5T525 91T352 225T219 398T133 602T102 831ZM330 831Q330 743 352 662T414 511T512 384T639 286T789 223T958 201Q1046 201 1127 223T1277 285T1404 383T1501 511T1564 662T1586 831Q1586 919 1564 1000T1502 1150T1404
1277T1278 1375T1127 1438T958 1460Q871 1460 790 1438T639 1376T512 1278T415 1151T352 1000T330 831ZM1148 973Q1116 1015 1070 1037T969 1060Q920 1060 879 1043T808 994T759 920T741 831Q741 784 759 742T807 669T879 621T969 603Q1022 603 1068 623T1149 686L1339
495Q1269 421 1175 378T969 334Q866 334 776 373T618 479T511 637T472 831Q472 935 511 1025T617 1183T775 1289T969 1328Q1081 1328 1176 1285T1341 1168L1148 973Z" />
<glyph unicode="&#xaa;" glyph-name="ordfeminine" horiz-adv-x="1032" d="M644 891Q604 862 556 844T444 825Q387 825 343 843T268 890T221 958T205 1038Q205 1095 230 1140T302 1218T411 1267T551 1284Q602 1284 646 1280T728 1268Q728 1269 728 1270T729 1272Q739
1321 702 1346T596 1372Q533 1372 479 1361T367 1323L328 1460Q414 1513 501 1540T682 1567Q731 1567 776 1559T859 1532T923 1486T963 1418Q968 1402 970 1385T973 1348Q973 1320 969 1286T956 1214T938 1135T917 1053H1012L965 842H633L644 891ZM563 999T604
1009T679 1042L696 1122H554Q530 1122 508 1120T469 1111T442 1091T432 1057Q432 1037 451 1018T516 999Q563 999 604 1009Z" />
<glyph unicode="&#xab;" glyph-name="guillemotleft" horiz-adv-x="1069" d="M796 545L963 156H739L563 535L582 608L911 969H1151L796 545ZM356 545L522 156H299L123 535L141 608L471 969H711L356 545Z" />
<glyph unicode="&#xac;" glyph-name="logicalnot" horiz-adv-x="1821" d="M1780 1036L1597 248H1311L1430 762H242L305 1036H1780Z" />
<glyph unicode="&#xae;" glyph-name="registered" horiz-adv-x="2048" d="M528 585H623V1082H532V1293H1064Q1143 1293 1202 1268T1300 1204T1360 1116T1380 1023Q1380 971 1363 927T1307 848T1221 794Q1256 780 1277 753T1310 665L1325 585H1403V373H1075L1060
567Q1055 630 1046 652T1016 686T947 698H881V585H960V373H528V585ZM881 1082V900H947Q1016 900 1056 919T1096 989Q1096 1033 1058 1057T956 1082H881ZM102 831Q102 949 132 1058T218 1263T352 1436T525 1569T729 1655T958 1686Q1076 1686 1186 1656T1391 1570T1565
1436T1700 1263T1786 1059T1817 831Q1817 712 1787 603T1700 398T1566 225T1392 92T1186 6T958 -25Q839 -25 730 5T525 91T352 225T219 398T133 602T102 831ZM317 831Q317 741 339 659T403 505T503 375T632 275T786 211T958 188Q1048 188 1130 210T1284 274T1413
374T1512 504T1576 658T1599 831Q1599 921 1577 1003T1513 1157T1413 1286T1284 1386T1131 1450T958 1473Q869 1473 787 1451T633 1387T503 1287T404 1157T340 1004T317 831Z" />
<glyph unicode="&#xaf;" glyph-name="overscore" horiz-adv-x="831" d="M770 1176H82V1391H770V1176Z" />
<glyph unicode="&#xb0;" glyph-name="degree" horiz-adv-x="815" d="M410 1706Q474 1706 530 1683T627 1618T691 1519T715 1395Q715 1330 692 1274T627 1175T530 1108T410 1083Q345 1083 289 1107T191 1174T126 1274T102 1397Q102 1461 126 1517T192 1615T290
1681T410 1706ZM258 1389Q258 1360 270 1333T302 1286T348 1253T403 1241Q437 1241 465 1252T514 1283T545 1331T557 1393Q557 1427 546 1456T515 1505T468 1536T408 1548Q376 1548 349 1536T302 1503T270 1452T258 1389Z" />
<glyph unicode="&#xb1;" glyph-name="plusminus" horiz-adv-x="1298" d="M219 957H582L645 1253H942L879 957H1243L1176 660H811L740 369H443L514 660H152L219 957ZM64 274H1088L1025 0H1L64 274Z" />
<glyph unicode="&#xb2;" glyph-name="twosuperior" horiz-adv-x="860" d="M250 1034L565 1235Q590 1251 606 1266T630 1293T642 1316T645 1333Q645 1347 635 1356T602 1366Q582 1366 569 1359T548 1341T536 1320T530 1303H305Q320 1374 354 1426T437 1512T543
1562T666 1579Q709 1579 751 1568T827 1533T880 1473T901 1389Q901 1350 892 1321T865 1267T823 1223T766 1180L576 1047H825L778 842H205L250 1034Z" />
<glyph unicode="&#xb3;" glyph-name="threesuperior" horiz-adv-x="797" d="M580 1343Q580 1359 571 1370T541 1382Q512 1382 489 1367T457 1311H238Q248 1368 276 1417T349 1503T453 1560T586 1581Q635 1581 677 1566T751 1523T799 1459T817 1380Q817 1351 810
1327T790 1283T764 1248T737 1221Q752 1205 761 1175T770 1114Q770 1061 741 1011T663 921T548 858T412 834Q338 834 287 854T205 911T167 996T172 1102H391Q388 1087 389 1073T398 1047T417 1028T449 1020Q468 1020 484 1027T512 1046T530 1071T537 1096Q537 1111
525 1124T479 1137H377L408 1270H520Q538 1270 549 1278T567 1298T577 1322T580 1343V1343Z" />
<glyph unicode="&#xb4;" glyph-name="acute" horiz-adv-x="680" d="M256 1489H582V1464L276 1178H41L256 1489Z" />
<glyph unicode="&#xb5;" glyph-name="mu" horiz-adv-x="1348" d="M0 -471L348 1036H668L528 435Q522 395 529 364T556 310T604 276T672 264Q696 264 720 270T768 289T812 317T852 355L1010 1036H1329L1153 274H1315L1251 0H780L799 81Q772 59 743 42T680 12T609
-6T528 -12Q502 -12 477 -9T427 -1L319 -471H0Z" />
<glyph unicode="&#xb6;" glyph-name="paragraph" horiz-adv-x="1446" d="M483 533Q423 552 373 585T285 666T226 776T205 913Q205 995 230 1072T301 1216T412 1338T557 1433T730 1494T926 1516H1610L1546 1241H1405L1034 -362H741L1112 1241H940L569 -362H276L483 533Z" />
<glyph unicode="&#xb7;" glyph-name="middot" horiz-adv-x="539" d="M143 690T157 722T195 779T251 817T322 831Q358 831 390 817T446 779T484 723T498 653Q498 616 484 584T446 527T390 489T322 475Q284 475 252 489T195 527T157 583T143 653Q143 690 157 722Z" />
<glyph unicode="&#xb8;" glyph-name="cedilla" horiz-adv-x="705" d="M102 -289Q154 -277 192 -257T259 -207T306 -138T338 -47L602 -139Q573 -208 530 -262T432 -356T311 -419T172 -453L102 -289Z" />
<glyph unicode="&#xb9;" glyph-name="onesuperior" horiz-adv-x="715" d="M229 1034H360L417 1284L260 1217L313 1450L582 1577H694L569 1034H690L645 840H184L229 1034Z" />
<glyph unicode="&#xba;" glyph-name="ordmasculine" horiz-adv-x="823" d="M205 1254T238 1329T332 1459T473 1545T651 1577Q724 1577 785 1550T892 1478T962 1375T987 1255Q987 1171 954 1096T861 964T720 875T541 842Q467 842 406 867T300 937T230 1040T205
1167Q205 1254 238 1329ZM444 1161T452 1140T476 1103T515 1078T569 1069Q606 1069 638 1083T694 1120T731 1173T745 1235Q745 1259 737 1280T713 1316T675 1339T625 1348Q588 1348 555 1335T498 1300T459 1249T444 1186Q444 1161 452 1140Z" />
<glyph unicode="&#xbb;" glyph-name="guillemotright" horiz-adv-x="1069" d="M386 579L229 969H453L629 590L610 516L281 156H41L386 579ZM826 579L670 969H893L1069 590L1051 516L721 156H481L826 579Z" />
<glyph unicode="&#xbc;" glyph-name="onequarter" horiz-adv-x="2025" d="M286 1034H417L474 1284L317 1217L370 1450L639 1577H751L626 1034H747L702 840H241L286 1034ZM1626 1577H1927L303 -61H-4L1626 1577ZM1144 348L1520 764H1736L1356 342H1523L1561 508H1764L1726
342H1832L1795 182H1689L1647 0H1445L1486 182H1109L1144 348Z" />
<glyph unicode="&#xbd;" glyph-name="onehalf" horiz-adv-x="1964" d="M286 1034H417L474 1284L317 1217L370 1450L639 1577H751L626 1034H747L702 840H241L286 1034ZM1626 1577H1927L303 -61H-4L1626 1577ZM1151 193L1473 414Q1498 431 1513 446T1536 474T1547
494T1550 506Q1550 523 1540 530T1509 537Q1492 537 1480 531T1458 516T1443 496T1434 473H1208Q1224 545 1258 597T1341 683T1447 733T1569 750Q1614 750 1656 740T1731 706T1784 647T1804 559Q1804 518 1794 490T1769 443T1742 414T1724 399L1481 225H1731L1679
0H1106L1151 193Z" />
<glyph unicode="&#xbe;" glyph-name="threequarters" horiz-adv-x="2025" d="M1667 1577H1968L344 -61H37L1667 1577ZM584 1555Q584 1571 575 1582T545 1594Q516 1594 493 1579T461 1523H242Q252 1580 280 1629T353 1715T457 1772T590 1793Q639 1793 681 1778T755
1735T803 1671T821 1592Q821 1563 814 1539T794 1495T768 1460T741 1433Q756 1417 765 1387T774 1326Q774 1273 745 1223T667 1133T552 1070T416 1046Q342 1046 291 1066T209 1123T171 1208T176 1314H395Q392 1299 393 1285T402 1259T421 1240T453 1232Q472 1232
488 1239T516 1258T534 1283T541 1308Q541 1323 529 1336T483 1349H381L412 1482H524Q542 1482 553 1490T571 1510T581 1534T584 1555V1555ZM1164 348L1540 764H1756L1376 342H1543L1581 508H1784L1746 342H1852L1815 182H1709L1667 0H1465L1506 182H1129L1164
348Z" />
<glyph unicode="&#xbf;" glyph-name="questiondown" horiz-adv-x="1044" d="M883 563Q871 500 855 452T818 367T771 300T712 244T640 191T555 135Q505 102 474 72T426 12T403 -45T397 -104Q397 -129 405 -149T426 -184T458 -207T498 -215Q519 -215 542 -208T587
-183T625 -133T653 -51L983 -84Q960 -192 914 -273T801 -408T648 -490T459 -518Q371 -518 295 -490T163 -412T74 -293T41 -143Q41 -83 50 -28T85 78T156 178T274 272Q312 297 345 317T408 355T461 393T504 437T538 492T563 563H883ZM945 889Q945 852 931 820T893
763T837 725T766 711Q730 711 698 725T642 763T604 819T590 889Q590 926 604 958T642 1015T698 1053T766 1067Q804 1067 836 1053T893 1015T931 959T945 889V889Z" />
<glyph unicode="&#xc0;" glyph-name="Agrave" horiz-adv-x="1479" d="M907 274H991L975 483H557L446 274H573L510 0H-102L-39 274H89L778 1516H1214L1328 274H1520L1456 0H844L907 274ZM711 772H954L924 1174L711 772ZM861 1658L568 1944V1969H894L1090 1658H861Z" />
<glyph unicode="&#xc1;" glyph-name="Aacute" horiz-adv-x="1479" d="M907 274H991L975 483H557L446 274H573L510 0H-102L-39 274H89L778 1516H1214L1328 274H1520L1456 0H844L907 274ZM711 772H954L924 1174L711 772ZM1056 1969H1382V1944L1076 1658H841L1056 1969Z" />
<glyph unicode="&#xc2;" glyph-name="Acircumflex" horiz-adv-x="1479" d="M907 274H991L975 483H557L446 274H573L510 0H-102L-39 274H89L778 1516H1214L1328 274H1520L1456 0H844L907 274ZM711 772H954L924 1174L711 772ZM600 1658L957 1983H1196L1393 1658H1145L1049
1815L877 1658H600Z" />
<glyph unicode="&#xc3;" glyph-name="Atilde" horiz-adv-x="1479" d="M907 274H991L975 483H557L446 274H573L510 0H-102L-39 274H89L778 1516H1214L1328 274H1520L1456 0H844L907 274ZM711 772H954L924 1174L711 772ZM935 1959Q977 1959 1016 1945T1092 1913T1165
1881T1236 1866Q1278 1866 1310 1881T1369 1934L1527 1864Q1512 1819 1485 1780T1421 1712T1342 1666T1252 1649Q1200 1649 1158 1662T1079 1692T1005 1723T929 1737Q884 1737 853 1719T802 1674L650 1744Q664 1798 697 1838T772 1905T856 1945T935 1959Z" />
<glyph unicode="&#xc4;" glyph-name="Adieresis" horiz-adv-x="1479" d="M907 274H991L975 483H557L446 274H573L510 0H-102L-39 274H89L778 1516H1214L1328 274H1520L1456 0H844L907 274ZM711 772H954L924 1174L711 772ZM716 1821Q716 1858 729 1890T767 1947T823
1986T894 2000Q930 2000 962 1986T1018 1948T1056 1891T1070 1821Q1070 1784 1056 1752T1018 1695T962 1657T894 1643Q856 1643 824 1657T767 1695T730 1751T716 1821ZM1195 1821Q1195 1858 1209 1890T1247 1947T1303 1986T1374 2000Q1410 2000 1442 1986T1498
1948T1536 1891T1550 1821Q1550 1784 1536 1752T1498 1695T1442 1657T1374 1643Q1336 1643 1304 1657T1247 1695T1209 1751T1195 1821Z" />
<glyph unicode="&#xc5;" glyph-name="Aring" horiz-adv-x="1479" d="M907 274H991L975 483H557L446 274H573L510 0H-102L-39 274H89L716 1404Q682 1440 664 1484T645 1579Q645 1638 671 1690T744 1781T851 1842T981 1865Q1050 1865 1111 1843T1219 1781T1292 1690T1319
1579Q1319 1522 1295 1472T1226 1382L1328 274H1520L1456 0H844L907 274ZM711 772H954L924 1174L711 772ZM854 1579Q854 1555 864 1535T891 1499T931 1475T981 1466Q1008 1466 1031 1475T1071 1499T1097 1534T1107 1579Q1107 1602 1098 1622T1071 1658T1031 1681T981
1690Q955 1690 932 1682T891 1658T864 1623T854 1579Z" />
<glyph unicode="&#xc6;" glyph-name="AE" horiz-adv-x="2191" d="M-80 274H57L1024 1516H2376L2257 999H1907L1962 1241H1541L1465 915H1802L1735 625H1398L1316 274H1712L1774 543H2124L1999 0H903L931 121V121L1015 483H613L450 274H596L532 0H-143L-80 274ZM1082
772L1186 1220L837 772H1082Z" />
<glyph unicode="&#xc7;" glyph-name="Ccedilla" horiz-adv-x="1493" d="M1199 1123T1134 1165T971 1208Q903 1208 839 1187T719 1127T616 1035T536 919T484 786T465 641Q465 566 486 505T546 399T641 330T766 305Q821 305 869 320T958 361T1034 423T1096 500L1413
342Q1299 162 1127 66T727 -31Q591 -31 477 15T279 146T149 347T102 608Q102 750 138 874T237 1103T387 1289T575 1427T788 1514T1014 1544Q1105 1544 1182 1525T1323 1471T1425 1398T1487 1329H1677L1614 1055H1225Q1199 1123 1134 1165ZM268 -289Q320 -277 358
-257T425 -207T472 -138T504 -47L768 -139Q739 -208 696 -262T598 -356T477 -419T338 -453L268 -289Z" />
<glyph unicode="&#xc8;" glyph-name="Egrave" horiz-adv-x="1505" d="M393 1516H1690L1571 999H1221L1276 1241H855L779 915H1116L1049 625H712L630 274H1026L1087 543H1438L1313 0H61L125 274H280L504 1241H330L393 1516ZM1068 1658L775 1944V1969H1101L1297 1658H1068Z" />
<glyph unicode="&#xc9;" glyph-name="Eacute" horiz-adv-x="1505" d="M393 1516H1690L1571 999H1221L1276 1241H855L779 915H1116L1049 625H712L630 274H1026L1087 543H1438L1313 0H61L125 274H280L504 1241H330L393 1516ZM1168 1969H1494V1944L1188 1658H953L1168 1969Z" />
<glyph unicode="&#xca;" glyph-name="Ecircumflex" horiz-adv-x="1505" d="M393 1516H1690L1571 999H1221L1276 1241H855L779 915H1116L1049 625H712L630 274H1026L1087 543H1438L1313 0H61L125 274H280L504 1241H330L393 1516ZM713 1658L1070 1983H1309L1506
1658H1258L1162 1815L990 1658H713Z" />
<glyph unicode="&#xcb;" glyph-name="Edieresis" horiz-adv-x="1505" d="M393 1516H1690L1571 999H1221L1276 1241H855L779 915H1116L1049 625H712L630 274H1026L1087 543H1438L1313 0H61L125 274H280L504 1241H330L393 1516ZM646 1821Q646 1858 659 1890T697
1947T753 1986T824 2000Q860 2000 892 1986T948 1948T986 1891T1000 1821Q1000 1784 986 1752T948 1695T892 1657T824 1643Q786 1643 754 1657T697 1695T660 1751T646 1821ZM1125 1821Q1125 1858 1139 1890T1177 1947T1233 1986T1304 2000Q1340 2000 1372 1986T1428
1948T1466 1891T1480 1821Q1480 1784 1466 1752T1428 1695T1372 1657T1304 1643Q1266 1643 1234 1657T1177 1695T1139 1751T1125 1821Z" />
<glyph unicode="&#xcc;" glyph-name="Igrave" horiz-adv-x="926" d="M393 1516H1069L1006 1241H855L630 274H801L737 0H61L125 274H280L504 1241H330L393 1516ZM719 1658L426 1944V1969H752L948 1658H719Z" />
<glyph unicode="&#xcd;" glyph-name="Iacute" horiz-adv-x="926" d="M393 1516H1069L1006 1241H855L630 274H801L737 0H61L125 274H280L504 1241H330L393 1516ZM819 1969H1145V1944L839 1658H604L819 1969Z" />
<glyph unicode="&#xce;" glyph-name="Icircumflex" horiz-adv-x="926" d="M393 1516H1069L1006 1241H855L630 274H801L737 0H61L125 274H280L504 1241H330L393 1516ZM364 1658L721 1983H960L1157 1658H909L813 1815L641 1658H364Z" />
<glyph unicode="&#xcf;" glyph-name="Idieresis" horiz-adv-x="926" d="M393 1516H1069L1006 1241H855L630 274H801L737 0H61L125 274H280L504 1241H330L393 1516ZM297 1821Q297 1858 310 1890T348 1947T404 1986T475 2000Q511 2000 543 1986T599 1948T637 1891T651
1821Q651 1784 637 1752T599 1695T543 1657T475 1643Q437 1643 405 1657T348 1695T311 1751T297 1821ZM776 1821Q776 1858 790 1890T828 1947T884 1986T955 2000Q991 2000 1023 1986T1079 1948T1117 1891T1131 1821Q1131 1784 1117 1752T1079 1695T1023 1657T955
1643Q917 1643 885 1657T828 1695T790 1751T776 1821Z" />
<glyph unicode="&#xd0;" glyph-name="Eth" horiz-adv-x="1585" d="M88 640L152 914H347L423 1241H267L331 1516H939Q1076 1516 1191 1474T1389 1353T1519 1157T1566 893Q1566 768 1537 654T1452 440T1314 260T1126 121T891 32T611 0H-20L44 274H199L284 640H88ZM774
1241L698 914H950L886 640H634L549 274H656Q729 274 797 295T926 355T1037 448T1124 567T1181 708T1201 864Q1201 969 1175 1041T1104 1157T1001 1221T880 1241H774Z" />
<glyph unicode="&#xd1;" glyph-name="Ntilde" horiz-adv-x="1786" d="M1358 1516H1970L1907 1241H1777L1491 0H1147L761 935L608 274H737L674 0H61L125 274H260L483 1241H319L383 1516H899L1273 580L1427 1241H1294L1358 1516ZM963 1959Q1005 1959 1044 1945T1120
1913T1193 1881T1264 1866Q1306 1866 1338 1881T1397 1934L1555 1864Q1540 1819 1513 1780T1449 1712T1370 1666T1280 1649Q1228 1649 1186 1662T1107 1692T1033 1723T957 1737Q912 1737 881 1719T830 1674L678 1744Q692 1798 725 1838T800 1905T884 1945T963 1959Z"
/>
<glyph unicode="&#xd2;" glyph-name="Ograve" horiz-adv-x="1597" d="M748 -31Q612 -31 498 15T300 146T170 347T123 608Q123 750 159 874T258 1103T408 1289T596 1427T808 1514T1034 1544Q1176 1544 1291 1497T1488 1366T1614 1163T1659 903Q1659 764 1626 641T1531
414T1386 228T1201 88T985 0T748 -31ZM786 305Q853 305 917 326T1037 386T1140 477T1220 593T1273 727T1292 872Q1292 947 1272 1008T1212 1114T1117 1183T991 1208Q889 1208 797 1161T636 1035T526 854T485 641Q485 566 506 505T566 399T661 330T786 305ZM1002
1658L709 1944V1969H1035L1231 1658H1002Z" />
<glyph unicode="&#xd3;" glyph-name="Oacute" horiz-adv-x="1597" d="M748 -31Q612 -31 498 15T300 146T170 347T123 608Q123 750 159 874T258 1103T408 1289T596 1427T808 1514T1034 1544Q1176 1544 1291 1497T1488 1366T1614 1163T1659 903Q1659 764 1626 641T1531
414T1386 228T1201 88T985 0T748 -31ZM786 305Q853 305 917 326T1037 386T1140 477T1220 593T1273 727T1292 872Q1292 947 1272 1008T1212 1114T1117 1183T991 1208Q889 1208 797 1161T636 1035T526 854T485 641Q485 566 506 505T566 399T661 330T786 305ZM1102
1969H1428V1944L1122 1658H887L1102 1969Z" />
<glyph unicode="&#xd4;" glyph-name="Ocircumflex" horiz-adv-x="1597" d="M748 -31Q612 -31 498 15T300 146T170 347T123 608Q123 750 159 874T258 1103T408 1289T596 1427T808 1514T1034 1544Q1176 1544 1291 1497T1488 1366T1614 1163T1659 903Q1659 764 1626
641T1531 414T1386 228T1201 88T985 0T748 -31ZM786 305Q853 305 917 326T1037 386T1140 477T1220 593T1273 727T1292 872Q1292 947 1272 1008T1212 1114T1117 1183T991 1208Q889 1208 797 1161T636 1035T526 854T485 641Q485 566 506 505T566 399T661 330T786
305ZM647 1658L1004 1983H1243L1440 1658H1192L1096 1815L924 1658H647Z" />
<glyph unicode="&#xd5;" glyph-name="Otilde" horiz-adv-x="1597" d="M748 -31Q612 -31 498 15T300 146T170 347T123 608Q123 750 159 874T258 1103T408 1289T596 1427T808 1514T1034 1544Q1176 1544 1291 1497T1488 1366T1614 1163T1659 903Q1659 764 1626 641T1531
414T1386 228T1201 88T985 0T748 -31ZM786 305Q853 305 917 326T1037 386T1140 477T1220 593T1273 727T1292 872Q1292 947 1272 1008T1212 1114T1117 1183T991 1208Q889 1208 797 1161T636 1035T526 854T485 641Q485 566 506 505T566 399T661 330T786 305ZM799
1959Q841 1959 880 1945T956 1913T1029 1881T1100 1866Q1142 1866 1174 1881T1233 1934L1391 1864Q1376 1819 1349 1780T1285 1712T1206 1666T1116 1649Q1064 1649 1022 1662T943 1692T869 1723T793 1737Q748 1737 717 1719T666 1674L514 1744Q528 1798 561 1838T636
1905T720 1945T799 1959Z" />
<glyph unicode="&#xd6;" glyph-name="Odieresis" horiz-adv-x="1597" d="M748 -31Q612 -31 498 15T300 146T170 347T123 608Q123 750 159 874T258 1103T408 1289T596 1427T808 1514T1034 1544Q1176 1544 1291 1497T1488 1366T1614 1163T1659 903Q1659 764 1626
641T1531 414T1386 228T1201 88T985 0T748 -31ZM786 305Q853 305 917 326T1037 386T1140 477T1220 593T1273 727T1292 872Q1292 947 1272 1008T1212 1114T1117 1183T991 1208Q889 1208 797 1161T636 1035T526 854T485 641Q485 566 506 505T566 399T661 330T786
305ZM580 1821Q580 1858 593 1890T631 1947T687 1986T758 2000Q794 2000 826 1986T882 1948T920 1891T934 1821Q934 1784 920 1752T882 1695T826 1657T758 1643Q720 1643 688 1657T631 1695T594 1751T580 1821ZM1059 1821Q1059 1858 1073 1890T1111 1947T1167 1986T1238
2000Q1274 2000 1306 1986T1362 1948T1400 1891T1414 1821Q1414 1784 1400 1752T1362 1695T1306 1657T1238 1643Q1200 1643 1168 1657T1111 1695T1073 1751T1059 1821Z" />
<glyph unicode="&#xd7;" glyph-name="multiply" horiz-adv-x="1262" d="M466 680L207 1057L461 1249L708 890L1135 1262L1323 1047L870 654L1122 289L868 98L629 444L219 88L31 301L466 680Z" />
<glyph unicode="&#xd8;" glyph-name="Oslash" horiz-adv-x="1597" d="M219 247Q172 322 148 412T123 608Q123 750 159 874T258 1103T408 1289T596 1427T809 1514T1034 1544Q1143 1544 1236 1516T1404 1437L1543 1577H1844L1553 1284Q1604 1206 1631 1110T1659
903Q1659 764 1626 641T1531 414T1386 228T1201 88T985 0T748 -31Q637 -31 541 -1T367 87L220 -61H-87L219 247ZM853 305T917 326T1037 386T1140 477T1220 593T1273 727T1292 872Q1292 907 1287 939T1273 1001L626 348Q659 327 699 316T786 305Q853 305 917 326ZM485
610T488 582T499 528L1140 1172Q1108 1189 1071 1198T991 1208Q889 1208 797 1161T636 1035T526 854T485 641Q485 610 488 582Z" />
<glyph unicode="&#xd9;" glyph-name="Ugrave" horiz-adv-x="1534" d="M281 1516H893L829 1241H713L567 612Q546 512 555 457T594 361T668 303T772 285Q830 285 876 301T960 356T1025 457T1075 612L1220 1241H1083L1147 1516H1759L1696 1241H1566L1411 567Q1375
409 1314 296T1167 110T970 3T721 -31Q608 -31 514 2T351 96T247 242T206 424T225 633L367 1241H217L281 1516ZM776 1658L483 1944V1969H809L1005 1658H776Z" />
<glyph unicode="&#xda;" glyph-name="Uacute" horiz-adv-x="1534" d="M281 1516H893L829 1241H713L567 612Q546 512 555 457T594 361T668 303T772 285Q830 285 876 301T960 356T1025 457T1075 612L1220 1241H1083L1147 1516H1759L1696 1241H1566L1411 567Q1375
409 1314 296T1167 110T970 3T721 -31Q608 -31 514 2T351 96T247 242T206 424T225 633L367 1241H217L281 1516ZM1076 1969H1402V1944L1096 1658H861L1076 1969Z" />
<glyph unicode="&#xdb;" glyph-name="Ucircumflex" horiz-adv-x="1534" d="M281 1516H893L829 1241H713L567 612Q546 512 555 457T594 361T668 303T772 285Q830 285 876 301T960 356T1025 457T1075 612L1220 1241H1083L1147 1516H1759L1696 1241H1566L1411 567Q1375
409 1314 296T1167 110T970 3T721 -31Q608 -31 514 2T351 96T247 242T206 424T225 633L367 1241H217L281 1516ZM621 1658L978 1983H1217L1414 1658H1166L1070 1815L898 1658H621Z" />
<glyph unicode="&#xdc;" glyph-name="Udieresis" horiz-adv-x="1534" d="M281 1516H893L829 1241H713L567 612Q546 512 555 457T594 361T668 303T772 285Q830 285 876 301T960 356T1025 457T1075 612L1220 1241H1083L1147 1516H1759L1696 1241H1566L1411 567Q1375
409 1314 296T1167 110T970 3T721 -31Q608 -31 514 2T351 96T247 242T206 424T225 633L367 1241H217L281 1516ZM554 1821Q554 1858 567 1890T605 1947T661 1986T732 2000Q768 2000 800 1986T856 1948T894 1891T908 1821Q908 1784 894 1752T856 1695T800 1657T732
1643Q694 1643 662 1657T605 1695T568 1751T554 1821ZM1033 1821Q1033 1858 1047 1890T1085 1947T1141 1986T1212 2000Q1248 2000 1280 1986T1336 1948T1374 1891T1388 1821Q1388 1784 1374 1752T1336 1695T1280 1657T1212 1643Q1174 1643 1142 1657T1085 1695T1047
1751T1033 1821Z" />
<glyph unicode="&#xdd;" glyph-name="Yacute" horiz-adv-x="1393" d="M248 1516H860L797 1241H692L825 913L850 939L1112 1241H1024L1087 1516H1700L1636 1241H1535L941 615L862 274H1032L969 0H293L356 274H516L598 635L318 1241H184L248 1516ZM996 1969H1322V1944L1016
1658H781L996 1969Z" />
<glyph unicode="&#xde;" glyph-name="Thorn" horiz-adv-x="1370" d="M393 1516H918L881 1358V1358L845 1200H1030Q1134 1200 1216 1171T1355 1089T1442 965T1473 809Q1473 723 1441 645T1344 504T1183 398T960 340Q928 336 895 334T835 332H644L567 0H61L125 274H280L503
1241H330L393 1516ZM781 926L706 602H834Q856 602 876 603T915 607Q961 613 996 627T1056 665T1093 719T1106 791Q1106 853 1058 889T903 926H781Z" />
<glyph unicode="&#xdf;" glyph-name="germandbls" horiz-adv-x="1479" d="M84 274H272L481 1180Q501 1266 551 1338T676 1464T843 1547T1042 1577Q1136 1577 1212 1548T1343 1468T1428 1352T1458 1214Q1458 1148 1441 1096T1397 1004T1335 934T1264 885Q1336 831
1377 747T1419 563Q1419 422 1369 315T1232 135T1028 25T778 -12Q758 -12 730 -11T682 -6L750 283Q764 280 782 278T815 276Q865 276 912 295T996 347T1055 426T1077 522Q1077 556 1066 587T1032 640T980 676T911 690H844L909 979H983Q1018 979 1048 993T1101 1032T1136
1089T1149 1157Q1149 1217 1114 1257T1010 1298Q974 1298 942 1286T884 1251T839 1196T811 1124L551 0H20L84 274Z" />
<glyph unicode="&#xe0;" glyph-name="agrave" horiz-adv-x="1391" d="M786 79Q749 40 688 13Q623 -16 535 -16Q454 -16 376 13T238 99T140 242T102 438Q102 534 127 617T196 770T300 894T432 985T583 1041T745 1061Q791 1061 823 1055T898 1037T996 985L1008 1036H1348L1171
274H1362L1298 0H768L786 79ZM823 372L867 427L917 643Q905 666 886 687T839 725T777 749T709 758Q655 758 606 737T521 679T462 592T440 485Q440 437 455 401T496 341T556 305T629 293Q662 293 696 301T763 327T823 372ZM671 1178L378 1464V1489H704L900 1178H671Z"
/>
<glyph unicode="&#xe1;" glyph-name="aacute" horiz-adv-x="1391" d="M786 79Q749 40 688 13Q623 -16 535 -16Q454 -16 376 13T238 99T140 242T102 438Q102 534 127 617T196 770T300 894T432 985T583 1041T745 1061Q791 1061 823 1055T898 1037T996 985L1008 1036H1348L1171
274H1362L1298 0H768L786 79ZM823 372L867 427L917 643Q905 666 886 687T839 725T777 749T709 758Q655 758 606 737T521 679T462 592T440 485Q440 437 455 401T496 341T556 305T629 293Q662 293 696 301T763 327T823 372ZM771 1489H1097V1464L791 1178H556L771
1489Z" />
<glyph unicode="&#xe2;" glyph-name="acircumflex" horiz-adv-x="1391" d="M786 79Q749 40 688 13Q623 -16 535 -16Q454 -16 376 13T238 99T140 242T102 438Q102 534 127 617T196 770T300 894T432 985T583 1041T745 1061Q791 1061 823 1055T898 1037T996 985L1008
1036H1348L1171 274H1362L1298 0H768L786 79ZM823 372L867 427L917 643Q905 666 886 687T839 725T777 749T709 758Q655 758 606 737T521 679T462 592T440 485Q440 437 455 401T496 341T556 305T629 293Q662 293 696 301T763 327T823 372ZM316 1178L673 1503H912L1109
1178H861L765 1335L593 1178H316Z" />
<glyph unicode="&#xe3;" glyph-name="atilde" horiz-adv-x="1391" d="M786 79Q749 40 688 13Q623 -16 535 -16Q454 -16 376 13T238 99T140 242T102 438Q102 534 127 617T196 770T300 894T432 985T583 1041T745 1061Q791 1061 823 1055T898 1037T996 985L1008 1036H1348L1171
274H1362L1298 0H768L786 79ZM823 372L867 427L917 643Q905 666 886 687T839 725T777 749T709 758Q655 758 606 737T521 679T462 592T440 485Q440 437 455 401T496 341T556 305T629 293Q662 293 696 301T763 327T823 372ZM468 1479Q510 1479 549 1465T625 1433T698
1401T769 1386Q811 1386 843 1401T902 1454L1060 1384Q1045 1339 1018 1300T954 1232T875 1186T785 1169Q733 1169 691 1182T612 1212T538 1243T462 1257Q417 1257 386 1239T335 1194L183 1264Q197 1318 230 1358T305 1425T389 1465T468 1479Z" />
<glyph unicode="&#xe4;" glyph-name="adieresis" horiz-adv-x="1391" d="M786 79Q749 40 688 13Q623 -16 535 -16Q454 -16 376 13T238 99T140 242T102 438Q102 534 127 617T196 770T300 894T432 985T583 1041T745 1061Q791 1061 823 1055T898 1037T996 985L1008
1036H1348L1171 274H1362L1298 0H768L786 79ZM823 372L867 427L917 643Q905 666 886 687T839 725T777 749T709 758Q655 758 606 737T521 679T462 592T440 485Q440 437 455 401T496 341T556 305T629 293Q662 293 696 301T763 327T823 372ZM249 1343Q249 1380 262
1412T300 1469T356 1508T427 1522Q463 1522 495 1508T551 1470T589 1413T603 1343Q603 1306 589 1274T551 1217T495 1179T427 1165Q389 1165 357 1179T300 1217T263 1273T249 1343ZM728 1343Q728 1380 742 1412T780 1469T836 1508T907 1522Q943 1522 975 1508T1031
1470T1069 1413T1083 1343Q1083 1306 1069 1274T1031 1217T975 1179T907 1165Q869 1165 837 1179T780 1217T742 1273T728 1343Z" />
<glyph unicode="&#xe5;" glyph-name="aring" horiz-adv-x="1391" d="M786 79Q749 40 688 13Q623 -16 535 -16Q454 -16 376 13T238 99T140 242T102 438Q102 534 127 617T196 770T300 894T432 985T583 1041T745 1061Q791 1061 823 1055T898 1037T996 985L1008 1036H1348L1171
274H1362L1298 0H768L786 79ZM823 372L867 427L917 643Q905 666 886 687T839 725T777 749T709 758Q655 758 606 737T521 679T462 592T440 485Q440 437 455 401T496 341T556 305T629 293Q662 293 696 301T763 327T823 372ZM966 1546Q1031 1546 1089 1521T1190 1453T1259
1352T1284 1229Q1284 1164 1259 1106T1191 1005T1089 936T966 911Q901 911 843 936T742 1004T674 1106T649 1229Q649 1294 674 1352T742 1453T843 1521T966 1546ZM841 1229Q841 1203 851 1180T878 1140T917 1114T966 1104Q992 1104 1014 1113T1053 1140T1079 1180T1089
1229Q1089 1255 1080 1277T1054 1316T1015 1342T966 1352Q940 1352 918 1343T878 1317T851 1278T841 1229Z" />
<glyph unicode="&#xe6;" glyph-name="ae" horiz-adv-x="1849" d="M530 637Q599 637 653 631T755 613L762 643Q771 682 764 710T735 757T678 784T598 793Q551 793 510 789T429 775T353 753T279 721L227 915Q281 949 336 976T449 1021T564 1049T684 1059Q784 1059
865 1034T999 954Q1078 1008 1171 1037T1366 1067Q1466 1067 1551 1032T1698 937T1794 799T1829 637Q1829 617 1827 592T1821 541T1811 488T1798 440H1059Q1061 415 1066 393T1083 351Q1094 331 1110 316T1147 289T1194 272T1253 266Q1293 266 1327 274T1391 296T1448
331T1503 375L1722 182Q1672 128 1614 89T1490 24T1353 -14T1206 -27Q1146 -27 1091 -15T986 20T894 76T820 153Q781 113 737 81T642 25T529 -12T393 -25Q305 -25 239 -1T129 63T63 157T41 268Q41 323 56 371T101 461T173 534T270 590T390 625T530 637V637ZM442
211Q533 211 607 240T745 318Q741 335 739 352T735 386Q733 405 733 422H530Q494 422 459 418T395 401T348 364T330 299Q330 261 357 236T442 211V211ZM1333 809Q1293 809 1256 800T1188 772T1132 727T1094 666H1528Q1526 693 1511 718T1470 764T1410 796T1333
809Z" />
<glyph unicode="&#xe7;" glyph-name="ccedilla" horiz-adv-x="1171" d="M852 668Q836 710 793 736T700 762Q644 762 595 740T508 678T450 586T428 473Q428 428 442 393T481 332T537 293T604 279Q687 279 742 317T834 418L1106 270Q1074 208 1022 154T901 60T749
-2T571 -25Q470 -25 385 11T236 110T138 257T102 436Q102 579 153 695T292 894T493 1022T735 1067Q815 1067 883 1044T1006 981Q1031 963 1053 942H1245L1182 668H852V668ZM167 -289Q219 -277 257 -257T324 -207T371 -138T403 -47L667 -139Q638 -208 595 -262T497
-356T376 -419T237 -453L167 -289Z" />
<glyph unicode="&#xe8;" glyph-name="egrave" horiz-adv-x="1178" d="M428 440Q430 416 436 394Q446 356 469 328T531 283T623 266Q663 266 696 274T760 296T817 331T872 375L1092 182Q991 74 859 24T575 -27Q477 -27 391 5T241 96T140 241T102 432Q102 575 153
692T292 892T493 1021T735 1067Q836 1067 921 1032T1067 937T1163 799T1198 637Q1198 617 1196 592T1190 541T1180 488T1167 440H428ZM471 680Q467 673 464 666H897Q895 693 880 718T839 764T779 796T702 809Q652 809 607 794T527 751T471 680ZM823 1178L530 1464V1489H856L1052
1178H823Z" />
<glyph unicode="&#xe9;" glyph-name="eacute" horiz-adv-x="1178" d="M428 440Q430 416 436 394Q446 356 469 328T531 283T623 266Q663 266 696 274T760 296T817 331T872 375L1092 182Q991 74 859 24T575 -27Q477 -27 391 5T241 96T140 241T102 432Q102 575 153
692T292 892T493 1021T735 1067Q836 1067 921 1032T1067 937T1163 799T1198 637Q1198 617 1196 592T1190 541T1180 488T1167 440H428ZM471 680Q467 673 464 666H897Q895 693 880 718T839 764T779 796T702 809Q652 809 607 794T527 751T471 680ZM1011 1489H1337V1464L1031
1178H796L1011 1489Z" />
<glyph unicode="&#xea;" glyph-name="ecircumflex" horiz-adv-x="1178" d="M428 440Q430 416 436 394Q446 356 469 328T531 283T623 266Q663 266 696 274T760 296T817 331T872 375L1092 182Q991 74 859 24T575 -27Q477 -27 391 5T241 96T140 241T102 432Q102 575
153 692T292 892T493 1021T735 1067Q836 1067 921 1032T1067 937T1163 799T1198 637Q1198 617 1196 592T1190 541T1180 488T1167 440H428ZM471 680Q467 673 464 666H897Q895 693 880 718T839 764T779 796T702 809Q652 809 607 794T527 751T471 680ZM350 1178L707
1503H946L1143 1178H895L799 1335L627 1178H350Z" />
<glyph unicode="&#xeb;" glyph-name="edieresis" horiz-adv-x="1178" d="M428 440Q430 416 436 394Q446 356 469 328T531 283T623 266Q663 266 696 274T760 296T817 331T872 375L1092 182Q991 74 859 24T575 -27Q477 -27 391 5T241 96T140 241T102 432Q102 575
153 692T292 892T493 1021T735 1067Q836 1067 921 1032T1067 937T1163 799T1198 637Q1198 617 1196 592T1190 541T1180 488T1167 440H428ZM471 680Q467 673 464 666H897Q895 693 880 718T839 764T779 796T702 809Q652 809 607 794T527 751T471 680ZM477 1342Q477
1379 490 1411T528 1468T584 1507T655 1521Q691 1521 723 1507T779 1469T817 1412T831 1342Q831 1305 817 1273T779 1216T723 1178T655 1164Q617 1164 585 1178T528 1216T491 1272T477 1342ZM956 1342Q956 1379 970 1411T1008 1468T1064 1507T1135 1521Q1171 1521
1203 1507T1259 1469T1297 1412T1311 1342Q1311 1305 1297 1273T1259 1216T1203 1178T1135 1164Q1097 1164 1065 1178T1008 1216T970 1272T956 1342Z" />
<glyph unicode="&#xec;" glyph-name="igrave" horiz-adv-x="860" d="M141 1036H705L528 274H768L705 0H123L299 762H78L141 1036ZM706 1178L413 1464V1489H739L935 1178H706Z" />
<glyph unicode="&#xed;" glyph-name="iacute" horiz-adv-x="860" d="M141 1036H705L528 274H768L705 0H123L299 762H78L141 1036ZM585 1489H911V1464L605 1178H370L585 1489Z" />
<glyph unicode="&#xee;" glyph-name="icircumflex" horiz-adv-x="860" d="M141 1036H705L528 274H768L705 0H123L299 762H78L141 1036ZM130 1178L487 1503H726L923 1178H675L579 1335L407 1178H130Z" />
<glyph unicode="&#xef;" glyph-name="idieresis" horiz-adv-x="860" d="M141 1036H705L528 274H768L705 0H123L299 762H78L141 1036ZM103 1598Q103 1635 116 1667T154 1724T210 1763T281 1777Q317 1777 349 1763T405 1725T443 1668T457 1598Q457 1561 443 1529T405
1472T349 1434T281 1420Q243 1420 211 1434T154 1472T117 1528T103 1598ZM582 1598Q582 1635 596 1667T634 1724T690 1763T761 1777Q797 1777 829 1763T885 1725T923 1668T937 1598Q937 1561 923 1529T885 1472T829 1434T761 1420Q723 1420 691 1434T634 1472T596
1528T582 1598Z" />
<glyph unicode="&#xf0;" glyph-name="eth" horiz-adv-x="1182" d="M453 1360L519 1381Q472 1427 422 1470T318 1556H723Q750 1538 775 1520T824 1482L1013 1545L1098 1284L1027 1260Q1072 1191 1105 1116T1159 958T1191 787T1202 604Q1202 546 1189 477T1145 338T1066
203T947 87T783 6T571 -25Q470 -25 385 11T236 110T138 257T102 436Q102 531 125 614T189 765T283 887T399 978T527 1034T658 1053Q693 1053 721 1053T773 1052Q758 1079 742 1104T709 1156L539 1100L453 1360ZM877 576T877 586T876 606T876 626T858 674T794 740T700
768Q662 768 628 758T563 729T508 684T465 625T438 554T428 473Q428 438 436 403T465 339T519 292T604 274Q652 274 701 296T789 358T852 451T877 567Q877 576 877 586Z" />
<glyph unicode="&#xf1;" glyph-name="ntilde" horiz-adv-x="1421" d="M207 1036H733L717 951V952Q762 986 810 1010T909 1047T1014 1061Q1101 1061 1166 1032T1270 949T1319 817T1307 639L1222 274H1411L1348 0H817L946 557Q955 595 952 626T936 680T902 715T852
727Q801 727 726 688Q687 668 645 636L498 0H147L323 762H143L207 1036ZM611 1479Q653 1479 692 1465T768 1433T841 1401T912 1386Q954 1386 986 1401T1045 1454L1203 1384Q1188 1339 1161 1300T1097 1232T1018 1186T928 1169Q876 1169 834 1182T755 1212T681 1243T605
1257Q560 1257 529 1239T478 1194L326 1264Q340 1318 373 1358T448 1425T532 1465T611 1479Z" />
<glyph unicode="&#xf2;" glyph-name="ograve" horiz-adv-x="1182" d="M102 436Q102 579 153 695T292 894T493 1022T735 1067Q833 1067 918 1031T1067 933T1166 786T1202 604Q1202 467 1154 352T1021 153T821 22T571 -25Q470 -25 385 11T236 110T138 257T102 436ZM428
473Q428 429 441 393T477 330T533 289T604 274Q656 274 705 296T792 358T854 451T877 567Q877 618 863 655T824 718T768 755T700 768Q643 768 594 745T508 681T450 588T428 473ZM733 1178L440 1464V1489H766L962 1178H733Z" />
<glyph unicode="&#xf3;" glyph-name="oacute" horiz-adv-x="1182" d="M102 436Q102 579 153 695T292 894T493 1022T735 1067Q833 1067 918 1031T1067 933T1166 786T1202 604Q1202 467 1154 352T1021 153T821 22T571 -25Q470 -25 385 11T236 110T138 257T102 436ZM428
473Q428 429 441 393T477 330T533 289T604 274Q656 274 705 296T792 358T854 451T877 567Q877 618 863 655T824 718T768 755T700 768Q643 768 594 745T508 681T450 588T428 473ZM833 1489H1159V1464L853 1178H618L833 1489Z" />
<glyph unicode="&#xf4;" glyph-name="ocircumflex" horiz-adv-x="1182" d="M102 436Q102 579 153 695T292 894T493 1022T735 1067Q833 1067 918 1031T1067 933T1166 786T1202 604Q1202 467 1154 352T1021 153T821 22T571 -25Q470 -25 385 11T236 110T138 257T102
436ZM428 473Q428 429 441 393T477 330T533 289T604 274Q656 274 705 296T792 358T854 451T877 567Q877 618 863 655T824 718T768 755T700 768Q643 768 594 745T508 681T450 588T428 473ZM378 1178L735 1503H974L1171 1178H923L827 1335L655 1178H378Z" />
<glyph unicode="&#xf5;" glyph-name="otilde" horiz-adv-x="1182" d="M102 436Q102 579 153 695T292 894T493 1022T735 1067Q833 1067 918 1031T1067 933T1166 786T1202 604Q1202 467 1154 352T1021 153T821 22T571 -25Q470 -25 385 11T236 110T138 257T102 436ZM428
473Q428 429 441 393T477 330T533 289T604 274Q656 274 705 296T792 358T854 451T877 567Q877 618 863 655T824 718T768 755T700 768Q643 768 594 745T508 681T450 588T428 473ZM530 1479Q572 1479 611 1465T687 1433T760 1401T831 1386Q873 1386 905 1401T964
1454L1122 1384Q1107 1339 1080 1300T1016 1232T937 1186T847 1169Q795 1169 753 1182T674 1212T600 1243T524 1257Q479 1257 448 1239T397 1194L245 1264Q259 1318 292 1358T367 1425T451 1465T530 1479Z" />
<glyph unicode="&#xf6;" glyph-name="odieresis" horiz-adv-x="1182" d="M102 436Q102 579 153 695T292 894T493 1022T735 1067Q833 1067 918 1031T1067 933T1166 786T1202 604Q1202 467 1154 352T1021 153T821 22T571 -25Q470 -25 385 11T236 110T138 257T102
436ZM428 473Q428 429 441 393T477 330T533 289T604 274Q656 274 705 296T792 358T854 451T877 567Q877 618 863 655T824 718T768 755T700 768Q643 768 594 745T508 681T450 588T428 473ZM311 1342Q311 1379 324 1411T362 1468T418 1507T489 1521Q525 1521 557
1507T613 1469T651 1412T665 1342Q665 1305 651 1273T613 1216T557 1178T489 1164Q451 1164 419 1178T362 1216T325 1272T311 1342ZM790 1342Q790 1379 804 1411T842 1468T898 1507T969 1521Q1005 1521 1037 1507T1093 1469T1131 1412T1145 1342Q1145 1305 1131
1273T1093 1216T1037 1178T969 1164Q931 1164 899 1178T842 1216T804 1272T790 1342Z" />
<glyph unicode="&#xf7;" glyph-name="divide" horiz-adv-x="1100" d="M514 944T528 976T566 1033T622 1071T693 1085Q729 1085 761 1071T817 1033T855 977T869 907Q869 870 855 838T817 781T761 743T693 729Q655 729 623 743T566 781T528 837T514 907Q514 944
528 976ZM351 182T365 214T403 271T459 309T530 323Q566 323 598 309T654 271T692 215T706 145Q706 108 692 76T654 19T598 -19T530 -33Q492 -33 460 -19T403 19T365 75T351 145Q351 182 365 214ZM50 383L114 658H1089L1025 383H50Z" />
<glyph unicode="&#xf8;" glyph-name="oslash" horiz-adv-x="1182" d="M102 527T125 611T191 766T291 892T420 987T571 1046T735 1067Q804 1067 867 1049T984 996L1092 1104H1384L1131 848Q1165 794 1183 732T1202 600Q1202 509 1180 427T1118 275T1020 148T893
52T742 -9T571 -31Q502 -31 440 -14T325 36L229 -61H-70L173 183Q139 237 121 300T102 432Q102 527 125 611ZM899 565Q899 581 897 596T891 625L544 274Q557 270 571 268T600 266Q657 266 711 289T806 353T873 448T899 565ZM406 437T415 407L766 760Q752 765 737
767T705 770Q643 770 589 746T494 680T430 585T406 469Q406 437 415 407Z" />
<glyph unicode="&#xf9;" glyph-name="ugrave" horiz-adv-x="1356" d="M846 1036H1323L1146 274H1337L1274 0H774L793 81Q762 56 728 37Q685 13 634 1T522 -12Q420 -12 339 27T224 128T184 264T201 426L278 762H111L174 1036H662L526 451Q516 408 522 374T547 315T596
277T666 264Q698 264 730 275T790 305T846 355L940 762H782L846 1036ZM666 1178L373 1464V1489H699L895 1178H666Z" />
<glyph unicode="&#xfa;" glyph-name="uacute" horiz-adv-x="1356" d="M846 1036H1323L1146 274H1337L1274 0H774L793 81Q762 56 728 37Q685 13 634 1T522 -12Q420 -12 339 27T224 128T184 264T201 426L278 762H111L174 1036H662L526 451Q516 408 522 374T547 315T596
277T666 264Q698 264 730 275T790 305T846 355L940 762H782L846 1036ZM766 1489H1092V1464L786 1178H551L766 1489Z" />
<glyph unicode="&#xfb;" glyph-name="ucircumflex" horiz-adv-x="1356" d="M846 1036H1323L1146 274H1337L1274 0H774L793 81Q762 56 728 37Q685 13 634 1T522 -12Q420 -12 339 27T224 128T184 264T201 426L278 762H111L174 1036H662L526 451Q516 408 522 374T547
315T596 277T666 264Q698 264 730 275T790 305T846 355L940 762H782L846 1036ZM311 1178L668 1503H907L1104 1178H856L760 1335L588 1178H311Z" />
<glyph unicode="&#xfc;" glyph-name="udieresis" horiz-adv-x="1356" d="M846 1036H1323L1146 274H1337L1274 0H774L793 81Q762 56 728 37Q685 13 634 1T522 -12Q420 -12 339 27T224 128T184 264T201 426L278 762H111L174 1036H662L526 451Q516 408 522 374T547
315T596 277T666 264Q698 264 730 275T790 305T846 355L940 762H782L846 1036ZM244 1342Q244 1379 257 1411T295 1468T351 1507T422 1521Q458 1521 490 1507T546 1469T584 1412T598 1342Q598 1305 584 1273T546 1216T490 1178T422 1164Q384 1164 352 1178T295 1216T258
1272T244 1342ZM723 1342Q723 1379 737 1411T775 1468T831 1507T902 1521Q938 1521 970 1507T1026 1469T1064 1412T1078 1342Q1078 1305 1064 1273T1026 1216T970 1178T902 1164Q864 1164 832 1178T775 1216T737 1272T723 1342Z" />
<glyph unicode="&#xfd;" glyph-name="yacute" horiz-adv-x="1126" d="M106 1036H618L555 762H478L544 369L790 762H705L768 1036H1280L1217 762H1136L502 -197H627L553 -471H-20L53 -197H189L315 3L148 762H43L106 1036ZM805 1489H1131V1464L825 1178H590L805 1489Z" />
<glyph unicode="&#xfe;" glyph-name="thorn" horiz-adv-x="1343" d="M283 1556H817L680 963Q715 1004 779 1032T932 1061Q1031 1061 1111 1026T1247 928T1333 783T1364 604Q1364 467 1314 353T1176 156T972 28T721 -18Q688 -18 652 -13T582 1T519 23T470 52L413
-197H575L512 -471H-164L-100 -197H73L414 1282H219L283 1556ZM842 741Q771 741 707 705T599 609L547 387Q560 360 582 340T631 307T690 286T752 279Q806 279 854 300T937 357T993 443T1014 549Q1014 592 1001 627T965 688T911 727T842 741Z" />
<glyph unicode="&#xff;" glyph-name="ydieresis" horiz-adv-x="1126" d="M106 1036H618L555 762H478L544 369L790 762H705L768 1036H1280L1217 762H1136L502 -197H627L553 -471H-20L53 -197H189L315 3L148 762H43L106 1036ZM283 1342Q283 1379 296 1411T334 1468T390
1507T461 1521Q497 1521 529 1507T585 1469T623 1412T637 1342Q637 1305 623 1273T585 1216T529 1178T461 1164Q423 1164 391 1178T334 1216T297 1272T283 1342ZM762 1342Q762 1379 776 1411T814 1468T870 1507T941 1521Q977 1521 1009 1507T1065 1469T1103 1412T1117
1342Q1117 1305 1103 1273T1065 1216T1009 1178T941 1164Q903 1164 871 1178T814 1216T776 1272T762 1342Z" />
<glyph unicode="&#x2013;" glyph-name="endash" horiz-adv-x="1393" d="M395 733H1419L1356 459H332L395 733Z" />
<glyph unicode="&#x2014;" glyph-name="emdash" horiz-adv-x="2396" d="M498 733H2341L2277 459H434L498 733Z" />
<glyph unicode="&#x2018;" glyph-name="quoteleft" horiz-adv-x="608" d="M563 1657L772 1573L475 989L205 1096L563 1657Z" />
<glyph unicode="&#x2019;" glyph-name="quoteright" horiz-adv-x="608" d="M563 1663L834 1556L475 995L266 1079L563 1663Z" />
<glyph unicode="&#x201c;" glyph-name="quotedblleft" horiz-adv-x="1096" d="M1051 1657L1260 1573L963 989L692 1096L1051 1657ZM588 1663L797 1571L475 999L205 1106L588 1663Z" />
<glyph unicode="&#x201d;" glyph-name="quotedblright" horiz-adv-x="1096" d="M475 995L266 1079L563 1663L834 1556L475 995ZM938 989L729 1081L1051 1653L1321 1546L938 989Z" />
<glyph unicode="&#x201e;" glyph-name="quotedblbase" horiz-adv-x="1102" d="M179 -384L-30 -300L267 284L538 177L179 -384ZM642 -390L433 -298L755 274L1025 167L642 -390Z" />
<glyph unicode="&#x2022;" glyph-name="bullet" horiz-adv-x="1270" d="M307 553Q307 634 337 704T421 828T544 911T696 942Q777 942 847 912T971 828T1054 705T1085 553Q1085 472 1055 402T971 278T848 195T696 164Q615 164 545 194T421 278T338 401T307 553Z" />
<glyph unicode="&#x2039;" glyph-name="guilsinglleft" horiz-adv-x="629" d="M376 545L522 156H299L123 535L141 608L471 969H711L376 545Z" />
<glyph unicode="&#x203a;" glyph-name="guilsinglright" horiz-adv-x="629" d="M376 579L229 969H453L629 590L610 516L281 156H41L376 579Z" />
</font>
</defs>
</svg>
