<?xml version="1.0" standalone="no"?>
<!DOCTYPE svg PUBLIC "-//W3C//DTD SVG 1.1//EN" "http://www.w3.org/Graphics/SVG/1.1/DTD/svg11.dtd">
<svg xmlns="http://www.w3.org/2000/svg">
<defs >
<font id="Arvo" horiz-adv-x="1060" ><font-face
    font-family="Arvo"
    units-per-em="2048"
    panose-1="2 0 0 0 0 0 0 0 0 0"
    ascent="1968"
    descent="-506"
    alphabetic="0" />
<glyph unicode=" " glyph-name="space" horiz-adv-x="410" />
<glyph unicode="!" glyph-name="exclam" horiz-adv-x="696" d="M139 145Q139 182 152 214T190 271T246 310T317 324Q353 324 385 310T442 272T480 215T494 145Q494 108 480 76T442 19T386 -19T317 -33Q279 -33 247 -19T190 19T153 75T139 145ZM139 1577H508L467
510H180L139 1577Z" />
<glyph unicode="&quot;" glyph-name="quotedbl" horiz-adv-x="651" d="M289 1059H82L41 1577H307L289 1059ZM588 1059H389L375 1577H635L588 1059Z" />
<glyph unicode="#" glyph-name="numbersign" horiz-adv-x="1538" d="M166 1198H347L410 1516H741L679 1198H1005L1067 1516H1399L1337 1198H1497L1434 915H1282L1213 561H1401L1337 281H1158L1104 0H770L825 281H503L449 0H111L166 281H8L72 561H221L291 915H102L166
1198ZM557 561H880L949 915H625L557 561Z" />
<glyph unicode="$" glyph-name="dollar" horiz-adv-x="1245" d="M461 -188V134Q407 150 361 176T278 240H102V541H444Q444 505 456 476T491 425T547 391T625 379Q677 379 704 400T731 455Q731 471 721 484T695 509T659 528T618 543L432 600Q376 617 327 643T240
709T182 801T160 926Q160 996 182 1051T244 1148T339 1215T461 1255V1579H793V1238Q835 1224 870 1206T932 1167H1112V866H770Q769 903 758 929T726 975T675 1005T606 1016Q557 1016 531 998T504 948Q504 930 515 917T545 892T590 871T645 852L823 795Q957 753
1021 678T1085 481Q1085 417 1065 362T1006 262T914 185T793 133V-188H461Z" />
<glyph unicode="%" glyph-name="percent" horiz-adv-x="1833" d="M211 1167Q211 1242 239 1309T317 1426T437 1506T590 1536Q673 1536 742 1507T862 1427T941 1309T969 1167Q969 1093 942 1027T865 910T745 829T590 799Q504 799 435 828T315 908T238 1026T211
1167ZM590 1305Q561 1305 536 1295T491 1267T462 1224T451 1167Q451 1139 461 1114T491 1069T535 1039T590 1028Q619 1028 644 1039T688 1068T718 1112T729 1167Q729 1198 718 1223T689 1267T645 1295T590 1305ZM1370 1540H1636L611 0H345L1370 1540ZM1024 379Q1024
454 1052 521T1130 638T1250 718T1403 748Q1486 748 1555 719T1675 639T1754 521T1782 379Q1782 305 1755 238T1678 121T1558 40T1403 10Q1318 10 1248 39T1129 119T1052 237T1024 379ZM1403 516Q1374 516 1349 506T1304 478T1275 435T1264 379Q1264 350 1274 325T1304
281T1348 251T1403 240Q1432 240 1457 250T1501 280T1531 324T1542 379Q1542 410 1531 435T1502 478T1458 506T1403 516Z" />
<glyph unicode="&amp;" glyph-name="ampersand" horiz-adv-x="1337" d="M1196 -49L995 157Q913 79 810 33T578 -14Q476 -14 387 22T232 121T128 270T90 455Q90 582 149 680T313 852Q314 852 316 854L297 874Q235 940 202 1017T168 1190Q168 1272 201 1346T292
1476T429 1566T600 1599Q697 1599 776 1565T911 1475T997 1345T1028 1192Q1028 1136 1014 1084T974 987T914 905T842 840Q825 828 809 817T776 794L940 632Q954 677 963 718T979 797H1278Q1271 700 1245 600T1172 404L1427 154L1196 -49ZM406 461Q406 428 419 398T455
343T512 305T586 291Q649 291 698 312T788 370L526 638Q499 621 477 603T439 564T415 518T406 461ZM674 1063Q706 1086 719 1117T733 1192Q733 1219 723 1243T694 1285T651 1314T600 1325Q568 1325 542 1315T497 1287T468 1245T457 1192Q457 1152 471 1115T512
1053L568 998Q599 1015 626 1031T674 1063Z" />
<glyph unicode="&apos;" glyph-name="quotesingle" horiz-adv-x="340" d="M256 1059H37V1577L324 1593L256 1059Z" />
<glyph unicode="(" glyph-name="parenleft" horiz-adv-x="721" d="M510 -467Q412 -347 338 -215T212 58T135 347T109 647Q109 955 212 1241T514 1769L760 1597Q683 1496 623 1383T520 1149T456 901T434 647Q434 519 456 392T520 144T622 -92T758 -307L510 -467Z" />
<glyph unicode=")" glyph-name="parenright" horiz-adv-x="721" d="M6 -295Q83 -195 143 -82T246 153T310 401T332 655Q332 782 310 909T246 1158T144 1394T8 1610L256 1769Q452 1528 554 1245T657 655Q657 348 554 62T252 -467L6 -295Z" />
<glyph unicode="*" glyph-name="asterisk" horiz-adv-x="1008" d="M629 1364L868 1442L946 1204L705 1127L854 922L651 774L503 980L356 774L154 922L302 1127L61 1204L139 1442L379 1364V1616H629V1364Z" />
<glyph unicode="+" glyph-name="plus" horiz-adv-x="1229" d="M102 733H465V1096H762V733H1126V436H762V72H465V436H102V733Z" />
<glyph unicode="," glyph-name="comma" horiz-adv-x="532" d="M205 283L510 176L225 -365L20 -287L205 283Z" />
<glyph unicode="-" glyph-name="hyphen" horiz-adv-x="770" d="M61 449V723H688V449H61Z" />
<glyph unicode="." glyph-name="period" horiz-adv-x="529" d="M70 162Q70 202 84 237T125 299T188 341T265 357Q304 357 339 342T401 300T443 237T458 162Q458 122 443 86T401 24T340 -17T265 -33Q223 -33 188 -18T126 24T85 85T70 162Z" />
<glyph unicode="/" glyph-name="slash" horiz-adv-x="807" d="M633 1556H889L311 0H49L633 1556Z" />
<glyph unicode="0" glyph-name="zero" horiz-adv-x="1296" d="M672 -14Q512 -14 400 45T218 207T115 451T82 754Q82 914 113 1055T214 1303T397 1472T674 1534Q836 1534 948 1473T1131 1307T1232 1062T1264 762Q1264 601 1232 460T1129 213T945 47T672 -14ZM672
293Q761 293 813 328T894 426T930 575T938 762Q938 861 930 946T895 1095T815 1195T674 1231Q585 1231 532 1195T451 1096T415 947T406 762Q406 661 414 575T450 427T530 329T672 293Z" />
<glyph unicode="1" glyph-name="one" horiz-adv-x="815" d="M115 274H274V1065L41 926V1274L459 1520L604 1518V274H764V0H115V274Z" />
<glyph unicode="2" glyph-name="two" horiz-adv-x="1178" d="M127 260L651 817Q719 883 756 949T793 1083Q793 1112 781 1140T747 1191T692 1227T618 1241Q569 1241 533 1226T472 1183T434 1120T420 1044H119Q119 1162 158 1254T265 1410T426 1507T623 1540Q722
1540 811 1510T969 1422T1078 1279T1118 1083Q1118 994 1082 919T983 774L551 307H1116V0H127V260Z" />
<glyph unicode="3" glyph-name="three" horiz-adv-x="1087" d="M727 1083Q727 1113 714 1143T675 1197T614 1236T535 1251Q498 1251 465 1239T406 1205T365 1157T350 1063L39 1065Q40 1162 76 1250T176 1405T332 1511T535 1550Q641 1550 733 1514T893 1415T999
1272T1038 1102Q1038 1005 998 926T889 797Q925 777 956 744T1010 668T1047 574T1061 467Q1061 369 1021 281T911 127T744 21T537 -18Q432 -18 342 15T183 106T74 244T25 377T16 487H330Q336 382 390 333T541 283Q584 283 621 297T687 336T731 394T748 465Q748
505 734 539T692 598T626 637T539 651H399V924H541Q585 924 619 936T678 969T714 1019T727 1083Z" />
<glyph unicode="4" glyph-name="four" horiz-adv-x="1231" d="M10 670L549 1516H883L352 668H672V961L985 965V668H1196V414H985V274H1178V0H528V274H672V414H10V670Z" />
<glyph unicode="5" glyph-name="five" horiz-adv-x="1206" d="M436 926Q484 944 539 956T659 969Q761 969 852 938T1013 845T1124 693T1165 485Q1165 358 1120 262T1001 100T833 2T639 -31Q541 -31 454 -6T296 71T178 198T111 377L420 461Q426 414 445 377T492
314T558 274T639 260Q687 260 727 278T795 327T838 401T854 492Q854 533 838 572T792 641T720 689T627 707Q562 707 515 695T418 659L147 709V1516H1110V1210H436V926Z" />
<glyph unicode="6" glyph-name="six" horiz-adv-x="1163" d="M913 1518L604 977Q631 979 656 977T707 969Q792 953 866 911T994 806T1080 664T1112 496Q1112 387 1071 294T957 133T790 27T586 -12Q480 -12 386 26T220 131T108 289T66 485Q66 535 76 580T103 669T142
755T188 840L563 1518H913ZM582 694Q521 694 472 672T390 607Q377 582 369 553T360 489Q360 454 373 418T415 351T486 301T588 281Q628 281 669 295T742 335T794 399T815 487Q815 534 797 572T746 637T672 679T582 694Z" />
<glyph unicode="7" glyph-name="seven" horiz-adv-x="1190" d="M229 274H335Q386 392 440 514T547 755T652 987T751 1204H328V1032H41V1516H1149V1290Q1031 1048 909 791T671 274H770V0H229V274Z" />
<glyph unicode="8" glyph-name="eight" horiz-adv-x="1180" d="M639 1544Q741 1544 831 1508T988 1411T1094 1269T1133 1098Q1133 1010 1093 932T983 795Q1067 735 1116 650T1165 461Q1165 363 1125 275T1014 120T847 13T639 -27Q565 -27 497 -9T371 43T265 122T184
221T132 335T113 457Q113 563 163 650T298 798Q229 856 190 932T150 1092Q150 1185 188 1267T293 1410T449 1508T639 1544ZM403 465Q403 424 421 387T471 323T546 279T639 262Q688 262 730 278T804 322T854 387T872 465Q872 505 854 540T805 603T731 646T639 662Q589
662 546 646T471 603T421 541T403 465ZM440 1081Q440 1047 455 1017T497 963T560 927T639 913Q681 913 717 926T781 963T824 1016T840 1081Q840 1116 824 1147T781 1203T718 1241T639 1255Q597 1255 561 1241T497 1203T455 1148T440 1081Z" />
<glyph unicode="9" glyph-name="nine" horiz-adv-x="1151" d="M305 -2L612 538Q585 536 560 539T512 547Q427 563 353 605T224 710T138 852T106 1020Q106 1129 147 1222T260 1383T427 1489T631 1528Q737 1528 832 1490T998 1384T1111 1226T1153 1030Q1153 980
1143 935T1116 846T1076 761T1030 676L655 -2H305ZM637 821Q695 821 743 841T823 903Q837 929 846 959T856 1026Q856 1060 843 1097T802 1165T732 1215T631 1235Q589 1235 549 1221T476 1181T423 1116T403 1028Q403 981 421 943T471 878T546 836T637 821Z" />
<glyph unicode=":" glyph-name="colon" horiz-adv-x="539" d="M72 907Q72 944 85 976T123 1033T179 1071T250 1085Q286 1085 318 1071T374 1033T412 977T426 907Q426 870 412 838T374 781T318 743T250 729Q212 729 180 743T123 781T86 837T72 907ZM72 145Q72 182
85 214T123 271T179 310T250 324Q286 324 318 310T374 272T412 215T426 145Q426 108 412 76T374 19T318 -19T250 -33Q212 -33 180 -19T123 19T86 75T72 145Z" />
<glyph unicode=";" glyph-name="semicolon" horiz-adv-x="539" d="M72 907Q72 944 85 976T123 1033T179 1071T250 1085Q286 1085 318 1071T374 1033T412 977T426 907Q426 870 412 838T374 781T318 743T250 729Q212 729 180 743T123 781T86 837T72 907ZM123 283L428
176L143 -365L-61 -287L123 283Z" />
<glyph unicode="&lt;" glyph-name="less" horiz-adv-x="868" d="M31 674L786 948V692L338 558L786 414V164L31 451V674Z" />
<glyph unicode="=" glyph-name="equal" horiz-adv-x="995" d="M61 567H934V281H61V567ZM61 997H934V711H61V997Z" />
<glyph unicode="&gt;" glyph-name="greater" horiz-adv-x="827" d="M797 451L41 164V414L489 558L41 692V948L797 674V451Z" />
<glyph unicode="?" glyph-name="question" horiz-adv-x="1192" d="M301 145Q301 182 314 214T352 271T408 310T479 324Q515 324 547 310T603 272T641 215T655 145Q655 108 641 76T603 19T547 -19T479 -33Q441 -33 409 -19T352 19T315 75T301 145ZM324 391Q324
461 326 514T334 608T353 682T386 743T437 797T510 854Q556 892 586 923T633 986T657 1050T664 1124Q664 1183 635 1220T555 1257Q524 1257 498 1250T451 1224T420 1172T408 1087L90 1118Q92 1228 128 1309T228 1445T378 1525T567 1552Q662 1552 745 1524T889 1441T986
1306T1022 1122Q1022 1013 972 922T819 750Q766 712 731 679T675 607T646 517T637 391H324Z" />
<glyph unicode="@" glyph-name="at" horiz-adv-x="2267" d="M1608 956V309Q1608 266 1624 239T1675 211Q1724 211 1756 241T1806 319T1832 425T1839 541Q1839 627 1815 708T1745 860T1637 991T1497 1094T1331 1160T1145 1184Q1049 1184 961 1160T796 1090T657
982T549 842T480 677T455 494Q455 350 509 224T656 4T875 -144T1145 -199Q1244 -199 1342 -168T1534 -80L1671 -307Q1547 -382 1413 -422T1145 -463Q1013 -463 891 -429T662 -333T468 -184T319 10T222 238T188 494Q188 626 222 748T318 976T468 1169T661 1318T890
1414T1145 1448Q1278 1448 1401 1415T1630 1323T1824 1180T1973 996T2069 781T2103 543Q2103 441 2073 341T1985 161T1840 32T1640 -18Q1560 -18 1500 10T1399 89Q1342 40 1270 12T1130 -16Q1020 -16 927 24T767 132T661 289T623 479Q623 576 659 665T759 821T913
929T1110 969Q1169 969 1221 957T1321 925V956H1608ZM1130 276Q1190 276 1240 307T1321 396V555Q1308 584 1289 608T1245 649T1192 676T1133 686Q1091 686 1053 670T987 626T943 560T926 479Q926 434 942 397T986 332T1051 291T1130 276Z" />
<glyph unicode="A" glyph-name="A" horiz-adv-x="1491" d="M893 274H1044L976 492H510L442 274H602V0H27V274H140L553 1516H954L1358 274H1468V0H893V274ZM589 748H895L741 1241L589 748Z" />
<glyph unicode="B" glyph-name="B" horiz-adv-x="1386" d="M113 274H268V1241H113V1518L852 1516Q955 1516 1040 1480T1188 1381T1284 1235T1319 1057Q1319 947 1281 875T1171 759Q1246 711 1289 641T1333 469Q1333 366 1298 280T1201 132T1055 35T874 0H113V274ZM600
627V274H852Q881 274 906 289T950 328T980 385T991 453Q991 490 980 521T950 576T906 613T852 627H600ZM600 1241V901H838Q866 901 891 915T934 952T964 1005T975 1067Q975 1098 964 1129T935 1185T891 1225T838 1241H600Z" />
<glyph unicode="C" glyph-name="C" horiz-adv-x="1554" d="M1106 1055Q1050 1135 1005 1168T908 1216T799 1231Q715 1231 643 1194T519 1092T436 942T406 760Q406 663 435 578T517 428T641 327T799 289Q859 289 911 308T1005 360T1080 433T1130 520L1452 430Q1421
332 1361 249T1217 104T1027 8T799 -27Q696 -27 602 1T427 80T279 203T165 362T92 550T66 760Q66 923 123 1065T279 1314T511 1482T799 1544Q922 1544 1006 1514T1191 1393H1415V1055H1106Z" />
<glyph unicode="D" glyph-name="D" horiz-adv-x="1468" d="M82 1516H664Q768 1516 863 1489T1041 1413T1191 1296T1307 1143T1381 962T1407 760Q1407 655 1381 558T1307 377T1192 223T1042 104T864 27T664 0H82V274H203V1241H82V1516ZM535 1241V274H662Q743 274
815 312T940 415T1024 569T1055 760Q1055 861 1024 949T940 1102T815 1204T662 1241H535Z" />
<glyph unicode="E" glyph-name="E" horiz-adv-x="1380" d="M113 1516H1319V999H993V1214H604V915H905V625H604V274H993V543H1319V0H113V274H272V1214H113V1516Z" />
<glyph unicode="F" glyph-name="F" horiz-adv-x="1286" d="M113 1516H1286V999H961V1212H602V893H913V602H602V274H762V0H113V274H270V1212H113V1516Z" />
<glyph unicode="G" glyph-name="G" horiz-adv-x="1636" d="M1212 0V260Q1150 151 1091 100T958 18T758 -12Q696 -11 634 2T514 40T401 99T300 179Q189 291 128 438T66 760Q66 867 92 967T165 1154T278 1312T426 1435T602 1514T799 1542Q917 1542 1004 1511T1191
1393H1415V1055H1106Q1060 1126 1020 1158T932 1211T799 1232Q715 1232 643 1194T519 1092T436 940T406 760Q406 669 433 587T515 440T643 339T799 304Q905 304 984 366T1098 535H809V809H1511V0H1212Z" />
<glyph unicode="H" glyph-name="H" horiz-adv-x="1890" d="M1128 1516H1778V1241H1618V274H1778V0H1128V274H1286V662H602V274H762V0H113V274H270V1241H113V1516H762V1241H602V926H1286V1241H1128V1516Z" />
<glyph unicode="I" glyph-name="I" horiz-adv-x="810" d="M113 1516H762V1242H602V274H762V0H113V274H270V1242H113V1516Z" />
<glyph unicode="J" glyph-name="J" horiz-adv-x="686" d="M82 1516H655V1212H549V172Q527 91 485 24T403 -99T289 -238L10 -223Q69 -133 102 -75T170 54T223 205V1212H82V1516Z" />
<glyph unicode="K" glyph-name="K" horiz-adv-x="1655" d="M113 1516H762V1241H602V800L1087 1223V1516H1604V1221H1491L986 787L1470 297H1593V0H1090V297L602 785V274H762V0H113V274H270V1241H113V1516Z" />
<glyph unicode="L" glyph-name="L" horiz-adv-x="1346" d="M113 1516H762V1241H602V274H932Q945 274 957 281T979 301T995 327T1001 354V557H1325V0H113V274H270V1241H113V1516Z" />
<glyph unicode="M" glyph-name="M" horiz-adv-x="2345" d="M113 274H254V1241H113V1516H737L1184 422L1599 1516H2232V1241H2091V274H2230V0H1663V274H1767V1146L1313 18H1032L570 1116V274H683V0H113V274Z" />
<glyph unicode="N" glyph-name="N" horiz-adv-x="1698" d="M1071 1516H1647V1241H1524V0H1192L561 980V274H688V0H113V274H238V1241H115V1516H573L1200 523V1241H1071V1516Z" />
<glyph unicode="O" glyph-name="O" horiz-adv-x="1620" d="M799 -27Q696 -27 602 1T427 80T279 202T165 361T92 549T66 758Q66 867 92 967T165 1155T278 1314T426 1437T602 1516T799 1544Q902 1544 996 1516T1172 1437T1320 1315T1434 1156T1508 968T1534 758Q1534
650 1508 550T1435 362T1321 203T1173 80T997 1T799 -27ZM799 287Q886 287 958 324T1083 426T1163 576T1192 758Q1192 855 1163 941T1082 1091T957 1193T799 1231Q713 1231 641 1194T517 1092T436 941T406 758Q406 662 435 577T517 427T641 325T799 287Z" />
<glyph unicode="P" glyph-name="P" horiz-adv-x="1400" d="M113 1516H813Q930 1516 1028 1480T1197 1381T1308 1238T1348 1069Q1348 963 1317 871T1219 710T1052 603T813 563H602V274H741V0H113V274H270V1241H113V1516ZM602 1241V834H739Q853 834 920 882T987
1034Q987 1131 924 1186T739 1241H602Z" />
<glyph unicode="Q" glyph-name="Q" horiz-adv-x="1634" d="M659 -12Q531 14 423 83T235 255T111 485T66 758Q66 867 92 967T165 1155T278 1314T426 1437T602 1516T799 1544Q902 1544 996 1516T1172 1437T1320 1315T1434 1156T1508 968T1534 758Q1534 612 1488
482T1361 249T1167 77T924 -15Q955 -28 985 -43T1047 -72T1108 -95T1171 -106Q1202 -106 1231 -98T1285 -73T1326 -29T1350 37L1573 -74Q1564 -147 1532 -206T1448 -307T1332 -372T1194 -395Q1135 -395 1076 -373T961 -324T856 -275T770 -252Q754 -252 742 -252T717
-251T691 -254T657 -264L659 -12ZM799 287Q886 287 958 324T1083 426T1163 576T1192 758Q1192 855 1163 941T1082 1091T957 1193T799 1231Q713 1231 641 1194T517 1092T436 941T406 758Q406 662 435 577T517 427T641 325T799 287Z" />
<glyph unicode="R" glyph-name="R" horiz-adv-x="1530" d="M113 1516H915Q1032 1516 1124 1481T1279 1388T1375 1252T1409 1090Q1409 1013 1393 955T1345 852T1267 773T1162 710Q1213 684 1252 631T1311 492L1362 295H1487L1489 0H1049L989 360Q980 424 962 470T912
546T837 590T731 604H602V274H741V0H113V274H270V1241H113V1516ZM602 1241V874H801Q858 874 903 884T981 917T1031 974T1049 1055Q1049 1143 986 1192T801 1241H602Z" />
<glyph unicode="S" glyph-name="S" horiz-adv-x="1245" d="M842 1089Q837 1124 818 1155T768 1208T699 1244T618 1257Q580 1257 547 1249T490 1225T451 1182T436 1120Q436 1075 455 1049T505 1005T573 978T645 956L920 864Q977 844 1027 809T1113 724T1171 609T1192
463Q1192 353 1152 262T1038 106T863 5T637 -31Q550 -31 473 -12T331 45T219 133T144 250H41V551H403V489Q403 444 417 406T461 340T534 297T637 281Q727 281 774 322T821 438Q821 476 805 501T762 544T704 574T641 596L412 670Q347 690 287 726T180 816T106 942T78
1108Q78 1216 118 1300T230 1443T401 1531T618 1561Q711 1561 790 1540T931 1482T1037 1400T1104 1303H1204V1001H842V1089Z" />
<glyph unicode="T" glyph-name="T" horiz-adv-x="1430" d="M373 274H530V1251H346V1055H20V1516H1399V1055H1071V1251H862V274H1022V0H373V274Z" />
<glyph unicode="U" glyph-name="U" horiz-adv-x="1561" d="M51 1516H659V1241H520V612Q520 526 539 466T594 368T677 313T782 295Q841 295 889 310T972 361T1025 459T1044 612V1241H883V1516H1491V1241H1370V651Q1370 491 1324 367T1198 156T1009 25T776 -20Q653
-20 546 24T360 153T234 359T188 633V1241H51V1516Z" />
<glyph unicode="V" glyph-name="V" horiz-adv-x="1530" d="M860 1516H1509V1241H1374L969 0H559L166 1241H20V1516H670V1241H508L772 381L1035 1241H860V1516Z" />
<glyph unicode="W" glyph-name="W" horiz-adv-x="2357" d="M1688 1516H2337V1241H2200L1851 0H1419L1190 946L956 0H528L173 1241H20V1516H670V1241H512L735 424L1004 1513H1376L1640 424L1864 1241H1688V1516Z" />
<glyph unicode="X" glyph-name="X" horiz-adv-x="1577" d="M858 1516H1501V1241H1449L990 754L1448 274H1497V0H854V274H1007L773 522L540 274H676V0H33V274H102L554 754L91 1241H37V1516H680V1241H527L771 984L1013 1241H858V1516Z" />
<glyph unicode="Y" glyph-name="Y" horiz-adv-x="1536" d="M47 1516H696V1241H569L772 893L987 1241H842V1516H1491V1241H1379L928 629V274H1112V0H436V274H604V633L180 1241H47V1516Z" />
<glyph unicode="Z" glyph-name="Z" horiz-adv-x="1290" d="M1214 1202L459 297H887V532H1212V0H61V313L798 1219H389V979H63V1516H1214V1202Z" />
<glyph unicode="[" glyph-name="bracketleft" horiz-adv-x="670" d="M82 1612H629V1366H406V-264H629V-512H82V1612Z" />
<glyph unicode="\" glyph-name="backslash" horiz-adv-x="778" d="M6 1384H242L813 -293H571L6 1384Z" />
<glyph unicode="]" glyph-name="bracketright" horiz-adv-x="670" d="M266 1366H43V1612H590V-512H43V-264H266V1366Z" />
<glyph unicode="^" glyph-name="asciicircum" horiz-adv-x="1229" d="M771 1513L1175 723H879L616 1251L342 723H52L468 1513H771Z" />
<glyph unicode="_" glyph-name="underscore" horiz-adv-x="1024" d="M0 -90H1024V-346H0V-90Z" />
<glyph unicode="`" glyph-name="grave" horiz-adv-x="774" d="M461 1178L168 1464V1489H494L690 1178H461Z" />
<glyph unicode="a" glyph-name="a" horiz-adv-x="1280" d="M717 56Q682 34 653 19T595 -6T535 -20T467 -25Q374 -25 301 0T177 70T99 175T72 307Q72 379 99 440T179 544T306 612T479 637Q550 637 608 630T717 611V643Q717 682 702 710T660 757T595 784T512 793Q418
793 347 775T209 721L113 915Q215 985 326 1022T563 1059Q660 1059 742 1038T884 968T976 841T1010 651V274H1149V0H717V56ZM489 211Q560 211 618 234T717 290V422H477Q454 422 432 415T393 395T365 363T354 319Q354 273 387 242T489 211Z" />
<glyph unicode="b" glyph-name="b" horiz-adv-x="1305" d="M29 1556H481V1013Q535 1039 592 1053T709 1067Q824 1067 922 1024T1091 907T1202 734T1243 524Q1243 412 1204 313T1093 141T924 25T709 -18Q646 -18 589 -6T481 28V0H174V1282H29V1556ZM688 791Q622
791 570 761T481 675V365Q513 317 566 288T686 258Q737 258 783 276T863 329T918 412T938 522Q938 584 918 634T864 719T785 772T688 791Z" />
<glyph unicode="c" glyph-name="c" horiz-adv-x="1180" d="M856 678Q813 732 760 759T635 783Q577 787 530 767T448 711T394 626T375 514Q375 459 395 410T449 326T531 270T635 246Q682 250 720 265T789 305T840 360T874 418L1149 342Q1132 282 1091 217T983 99T825
10T616 -25Q497 -25 397 18T225 137T113 313T72 530Q72 645 113 743T228 915T401 1030T620 1067Q704 1071 783 1048T933 979H1132V678H856Z" />
<glyph unicode="d" glyph-name="d" horiz-adv-x="1400" d="M693 1556H1146V274H1348V0H838V40Q784 12 728 -4T613 -20Q494 -20 395 22T224 139T112 312T72 526Q72 640 111 738T221 910T390 1025T607 1067Q672 1067 729 1055T838 1019V1282H693V1556ZM630 256Q696
258 749 290T838 374V679Q803 732 748 761T630 790Q578 791 533 772T453 718T398 634T378 523Q378 462 398 413T452 329T532 276T630 256Z" />
<glyph unicode="e" glyph-name="e" horiz-adv-x="1186" d="M349 453L352 422Q363 377 389 343T452 286T532 252T621 240Q666 240 706 245T785 260T859 282T932 309L1042 104Q985 69 938 45T842 4T740 -19T614 -27Q479 -27 374 17T198 138T89 316T51 532Q51 646
90 746T202 920T374 1038T596 1081Q718 1081 812 1041T972 929T1072 761T1110 553Q1113 528 1113 504T1112 453H349ZM588 831Q532 831 493 818T426 781T383 727T358 664H791Q784 698 771 728T735 781T677 817T588 831Z" />
<glyph unicode="f" glyph-name="f" horiz-adv-x="815" d="M530 1036H719V774H530V274H721V0H78V274H233V774H76V1036H233V1208Q233 1299 265 1368T350 1484T474 1555T621 1579Q678 1579 723 1571T802 1549T859 1521T897 1493L782 1282Q759 1299 730 1309T659 1319Q632
1319 609 1310T568 1284T540 1242T530 1182V1036Z" />
<glyph unicode="g" glyph-name="g" horiz-adv-x="1295" d="M849 54Q793 22 737 8T623 -6Q503 -6 402 35T228 148T113 320T72 535Q72 644 111 740T222 909T392 1024T607 1067Q678 1066 737 1052T849 1014V1036H1152V43Q1152 -88 1107 -183T987 -341T811 -434T601
-465Q465 -465 350 -428T144 -328L269 -106Q338 -150 419 -175T599 -201Q653 -201 698 -189T777 -149T830 -72T849 49V54ZM633 271Q703 271 759 306T849 400L851 652Q817 715 758 752T630 790Q581 789 534 771T453 718T398 638T378 534Q378 474 398 425T452 342T532
290T633 271Z" />
<glyph unicode="h" glyph-name="h" horiz-adv-x="1386" d="M57 1556H524V940Q583 994 653 1024T809 1055Q996 1055 1095 951T1194 645V274H1346V0H883V575Q883 662 840 712T729 762Q684 762 631 737T524 664V274H676V0H57V274H217V1282H57V1556Z" />
<glyph unicode="i" glyph-name="i" horiz-adv-x="790" d="M80 1036H545V274H689V0H80V274H236V762H80V1036ZM220 1370Q220 1407 233 1439T271 1496T327 1534T398 1548Q434 1548 466 1534T522 1496T560 1440T574 1370Q574 1333 560 1301T522 1244T466 1206T398
1192Q360 1192 328 1206T271 1244T234 1300T220 1370Z" />
<glyph unicode="j" glyph-name="j" horiz-adv-x="621" d="M51 1036H506V-18Q506 -137 477 -222T391 -362T251 -443T61 -469L57 -242Q129 -239 164 -185T199 -39V762H51V1036ZM182 1370Q182 1407 195 1439T233 1496T289 1534T360 1548Q396 1548 428 1534T485 1496T524
1440T539 1370Q539 1333 525 1301T486 1244T429 1206T360 1192Q322 1192 290 1206T233 1244T196 1300T182 1370Z" />
<glyph unicode="k" glyph-name="k" horiz-adv-x="1450" d="M59 1556H526V659H701L773 762V1036H1309V762H1123L930 539L1127 301H1299V0H1018L682 444H526V274H632V0H59V274H219V1282H59V1556Z" />
<glyph unicode="l" glyph-name="l" horiz-adv-x="780" d="M59 1556H526V274H686V0H59V274H219V1282H59V1556Z" />
<glyph unicode="m" glyph-name="m" horiz-adv-x="2156" d="M82 1036H556V946Q620 997 700 1027T865 1057Q983 1057 1067 1016T1200 889Q1233 926 1274 956T1363 1009T1461 1044T1567 1057Q1757 1057 1859 952T1961 645V274H2108V0H1635V594Q1635 682 1590 732T1463
782Q1407 782 1358 756T1259 664Q1260 653 1260 642T1260 618V274H1410V0H937V596Q937 638 924 672T888 730T834 767T764 782Q714 783 661 760T558 675V274H724V0H80V274H234V762H82V1036Z" />
<glyph unicode="n" glyph-name="n" horiz-adv-x="1460" d="M932 596Q932 683 886 732T764 782Q712 782 659 759T556 673V274H724V0H80V274H232V762H82V1036H554V945Q619 996 699 1025T869 1055Q1056 1055 1157 951T1258 645V274H1405V0H932V596Z" />
<glyph unicode="o" glyph-name="o" horiz-adv-x="1245" d="M72 522Q72 635 113 734T227 907T401 1024T623 1067Q744 1067 845 1024T1020 907T1133 734T1174 522Q1174 409 1135 310T1023 136T849 18T623 -25Q498 -25 397 18T223 135T112 308T72 522ZM371 522Q371
463 391 414T445 328T525 272T623 252Q676 252 721 271T800 327T853 412T872 522Q872 584 853 634T801 719T722 772T623 790Q571 791 526 773T446 719T391 634T371 522Z" />
<glyph unicode="p" glyph-name="p" horiz-adv-x="1368" d="M119 1036H571V1021Q619 1042 669 1054T772 1067Q886 1067 984 1024T1154 907T1266 734T1307 524Q1307 412 1268 313T1157 141T988 25T772 -18Q706 -18 649 -6T539 30V-197H737V-471H61V-197H231V762H119V1036ZM750
791Q687 791 632 758T539 665V373Q571 322 626 290T750 258Q801 258 847 277T927 332T981 416T1001 522Q1001 585 982 635T928 719T848 772T750 791Z" />
<glyph unicode="q" glyph-name="q" horiz-adv-x="1333" d="M606 -197H821V37Q768 11 714 -4T602 -20Q483 -20 384 22T213 139T101 314T61 528Q61 639 100 737T210 908T379 1024T596 1067Q659 1067 714 1055T821 1021V1067H1128V-197H1282V-471H606V-197ZM621 258Q683
258 734 286T821 365V686Q786 735 732 763T618 791Q567 791 521 772T441 718T387 634T367 524Q367 462 387 413T441 329T522 276T621 258Z" />
<glyph unicode="r" glyph-name="r" horiz-adv-x="1110" d="M1020 659H739V766Q698 766 664 761T605 742T562 706T537 649V274H748V0H72V274H227V762H74V1036H535V963Q579 998 634 1017T754 1036Q820 1036 890 1035T1020 1034V659Z" />
<glyph unicode="s" glyph-name="s" horiz-adv-x="1102" d="M741 743T726 765T680 803T607 830T508 840Q487 840 463 837T419 824T385 800T371 760Q371 748 374 737T388 716T415 698T461 684L649 647Q751 627 820 597T931 527T991 438T1010 332Q1010 243 969 176T860
65T708 -2T537 -25Q481 -25 436 -18T354 1T289 29T236 66H55V344H338V338Q339 309 356 288T400 251T463 229T537 221Q627 221 668 244T709 305Q709 334 689 354T618 387L426 428Q245 463 153 544T61 754Q61 829 96 890T191 995T331 1063T504 1087Q567 1087 616
1080T704 1060T772 1032T825 997H999V719H741Q741 743 726 765Z" />
<glyph unicode="t" glyph-name="t" horiz-adv-x="800" d="M471 1036H678V774H469L467 336Q467 298 473 275T490 237T518 218T555 213Q593 213 622 220T680 238L723 45Q672 13 610 -6T461 -25Q400 -25 345 -4T247 59T180 166T156 315L159 774H10V1036H160L162 1284L473
1432L471 1036Z" />
<glyph unicode="u" glyph-name="u" horiz-adv-x="1410" d="M723 1036H1213V274H1338V0H899V88Q846 40 775 14T611 -12Q525 -12 449 15T317 96T228 233T195 426V762H60V1036H518V426Q518 322 571 271T709 219Q769 219 818 256T889 356V762H723V1036Z" />
<glyph unicode="v" glyph-name="v" horiz-adv-x="1257" d="M41 1036H582V762H456L625 317L788 762H676V1036H1217V762H1079L770 -4H465L156 762H41V1036Z" />
<glyph unicode="w" glyph-name="w" horiz-adv-x="1898" d="M41 1036H582V762H465L575 393L788 1036H1081L1296 360L1428 762H1317V1036H1858V762H1719L1442 -4H1143L926 657L705 -4H414L157 762H41V1036Z" />
<glyph unicode="x" glyph-name="x" horiz-adv-x="1235" d="M686 274H745L616 397L482 274H549V0H61V274H164L421 526L183 762H61V1036H549V762H502L623 655L739 762H684V1036H1171V762H1057L818 525L1071 274H1174V0H686V274Z" />
<glyph unicode="y" glyph-name="y" horiz-adv-x="1241" d="M51 1036H559V762H479L628 374L781 762H692V1036H1200V762H1087L686 -197H864V-471H221V-197H402L480 0L156 762H51V1036Z" />
<glyph unicode="z" glyph-name="z" horiz-adv-x="1140" d="M94 164L523 770H322V614H61V1036H969V856L518 268H748V467H1010V0H94V164Z" />
<glyph unicode="{" glyph-name="braceleft" horiz-adv-x="897" d="M102 797Q137 803 168 804T226 809T274 823T309 856T332 919T340 1022V1423Q340 1520 359 1587T416 1695T510 1754T641 1772Q688 1772 724 1771T785 1767Q814 1765 836 1763V1456Q789 1454 761
1447T716 1422T695 1376T690 1303V893Q690 860 686 833T669 782T635 740T578 704Q614 689 636 668T670 620T686 565T690 504V133Q690 82 695 51T716 2T760 -22T836 -31V-358Q814 -361 785 -363Q760 -365 724 -366T641 -367Q566 -367 510 -349T416 -290T359 -183T340
-18V457Q333 519 312 547T259 587T187 598T102 606V797Z" />
<glyph unicode="|" glyph-name="bar" horiz-adv-x="594" d="M123 1729H375V-270H123V1729Z" />
<glyph unicode="}" glyph-name="braceright" horiz-adv-x="897" d="M61 -358V-31Q108 -29 136 -22T181 2T202 50T207 133V504Q207 535 211 564T227 620T261 667T319 704Q284 720 262 739T228 782T212 832T207 893V1303Q207 1347 202 1376T181 1422T137 1446T61
1456V1763Q83 1765 112 1767Q137 1769 172 1770T256 1772Q318 1772 367 1760T454 1720T514 1648T549 1540Q554 1514 555 1485T557 1423V1102Q557 1016 563 962T581 877T613 831T658 812T719 805T795 797V606Q750 599 710 599T638 587T585 548T557 457V-18Q557 -50
556 -79T549 -135Q538 -199 515 -243T454 -314T368 -354T256 -367Q208 -367 173 -366T112 -363Q83 -361 61 -358Z" />
<glyph unicode="~" glyph-name="asciitilde" horiz-adv-x="905" d="M-8 512Q-8 542 -3 578T13 650T45 721T95 781T167 824T264 840Q288 840 319 829T386 802T458 767T529 732T593 706T645 696Q692 696 714 723T745 811L930 770Q930 725 918 670T872 565T782 481T635
446Q580 446 527 469T426 519T335 568T260 590Q241 590 224 585T194 566T173 530T164 475L-8 512Z" />
<glyph unicode="&#xa1;" glyph-name="exclamdown" horiz-adv-x="696" d="M139 985Q139 1022 152 1054T190 1111T246 1149T317 1163Q353 1163 385 1149T441 1111T479 1055T493 985Q493 948 479 916T441 859T385 821T317 807Q279 807 247 821T190 859T153 915T139
985ZM180 596H467L508 -471H139L180 596Z" />
<glyph unicode="&#xa2;" glyph-name="cent" horiz-adv-x="1245" d="M461 -188V160Q373 184 302 234T179 355T100 511T72 694Q72 791 100 877T179 1032T302 1150T461 1224V1579H793V1218Q828 1207 862 1192T929 1157H1128V856H852Q809 906 756 933T631 961Q573
961 526 941T444 885T390 800T371 692Q371 633 391 584T445 500T527 444T631 424Q678 424 716 439T785 479T836 534T870 596L1145 516Q1131 468 1103 416T1030 315T927 228T793 165V-188H461Z" />
<glyph unicode="&#xa3;" glyph-name="sterling" horiz-adv-x="1065" d="M41 829H141Q132 872 127 919T121 1024Q121 1124 155 1204T250 1340T390 1427T563 1458Q772 1458 889 1347T1024 1018L688 1006Q685 1086 653 1125T569 1165Q523 1165 490 1132T457 1026Q457
995 462 961T478 897T503 829H772V584H599Q606 545 606 503T603 419T588 341T565 274H985V0H86V274H246Q261 328 263 392T255 492T238 546T224 584H41V829Z" />
<glyph unicode="&#xa4;" glyph-name="currency" horiz-adv-x="1438" d="M182 741Q182 810 198 873T246 994L51 1206L315 1448L509 1236Q558 1257 611 1268T721 1280Q777 1280 830 1269T931 1237L1124 1448L1389 1206L1195 995Q1226 938 1243 874T1260 741Q1260
672 1243 608T1195 486L1374 295L1110 55L932 246Q832 203 721 203Q664 203 610 214T506 248L330 55L66 295L244 490Q215 547 199 609T182 741ZM469 750Q469 697 488 651T542 571T622 518T721 498Q773 498 819 517T899 571T953 651T973 750Q973 803 953 849T899
928T819 981T721 1001Q668 1001 622 982T542 928T489 848T469 750Z" />
<glyph unicode="&#xa5;" glyph-name="yen" horiz-adv-x="1536" d="M842 1516H1491V1241H1378L1132 928H1292V670H930L928 667V610H1292V352H928V274H1112V0H436V274H604V352H244V610H604V670H244V928H413L181 1241H47V1516H696V1241H571L772 934L986 1241H842V1516Z" />
<glyph unicode="&#xa6;" glyph-name="brokenbar" horiz-adv-x="594" d="M123 1729H375V971H123V1729ZM123 487H375V-270H123V487Z" />
<glyph unicode="&#xa7;" glyph-name="section" horiz-adv-x="1128" d="M29 72H377V-19Q380 -39 389 -65T422 -115T485 -154T575 -168Q650 -168 688 -134T727 -41Q727 -11 713 9T677 42T628 65T575 84L362 152Q305 170 251 203T154 285T85 401T59 553Q59 653 92
722T175 838Q160 852 132 885T77 984T51 1135Q51 1236 89 1313T193 1443T351 1521T551 1548Q646 1548 725 1525T863 1463T953 1385T997 1317H1092V1022H743V1071H741Q747 1108 734 1143T695 1204T632 1246T553 1262Q524 1262 497 1257T449 1240T416 1207T403 1155Q403
1116 420 1093T464 1056T523 1033T588 1014L852 926Q898 910 939 879T1012 802T1061 698T1079 567Q1079 465 1048 393T973 272Q999 249 1026 212T1071 116T1090 -14Q1090 -116 1053 -200T949 -344T787 -436T578 -469Q488 -469 406 -445T260 -377T167 -289T127 -223H29V72ZM475
668T456 656T424 623T412 571Q412 533 428 510T471 473T529 450T592 430L623 419Q658 428 680 448Q717 483 717 543Q717 573 704 593T669 626T622 649T571 668L540 678Q519 677 497 673Z" />
<glyph unicode="&#xa8;" glyph-name="dieresis" horiz-adv-x="940" d="M47 1343Q47 1380 60 1412T98 1469T154 1508T225 1522Q261 1522 293 1508T349 1470T387 1413T401 1343Q401 1306 387 1274T349 1217T293 1179T225 1165Q187 1165 155 1179T98 1217T61 1273T47
1343ZM526 1343Q526 1380 540 1412T578 1469T634 1508T705 1522Q741 1522 773 1508T829 1470T867 1413T881 1343Q881 1306 867 1274T829 1217T773 1179T705 1165Q667 1165 635 1179T578 1217T540 1273T526 1343Z" />
<glyph unicode="&#xa9;" glyph-name="copyright" horiz-adv-x="1919" d="M102 831Q102 949 132 1058T218 1263T352 1436T525 1569T729 1655T958 1686Q1076 1686 1186 1656T1391 1570T1565 1436T1700 1263T1786 1059T1817 831Q1817 712 1787 603T1700 398T1566
225T1392 92T1186 6T958 -25Q839 -25 730 5T525 91T352 225T219 398T133 602T102 831ZM330 831Q330 743 352 662T414 511T512 384T639 286T789 223T958 201Q1046 201 1127 223T1277 285T1404 383T1501 511T1564 662T1586 831Q1586 919 1564 1000T1502 1150T1404
1277T1278 1375T1127 1438T958 1460Q871 1460 790 1438T639 1376T512 1278T415 1151T352 1000T330 831ZM1148 973Q1116 1015 1070 1037T969 1060Q920 1060 879 1043T808 994T759 920T741 831Q741 784 759 742T807 669T879 621T969 603Q1022 603 1068 623T1149 686L1339
495Q1269 421 1175 378T969 334Q866 334 776 373T618 479T511 637T472 831Q472 935 511 1025T617 1183T775 1289T969 1328Q1081 1328 1176 1285T1341 1168L1148 973Z" />
<glyph unicode="&#xaa;" glyph-name="ordfeminine" horiz-adv-x="1006" d="M571 909Q536 891 500 884T424 877Q359 877 310 893T226 937T174 1004T156 1108Q156 1152 169 1187T212 1250T290 1297T410 1315Q455 1315 494 1310T568 1300Q564 1352 530 1365T442 1378Q384
1378 340 1370T246 1337L174 1478Q248 1528 322 1552T485 1577Q550 1577 606 1564T703 1520T767 1441T791 1319V1095H885V892H571V909ZM432 1050Q517 1050 570 1083V1153H410Q399 1153 384 1146T369 1113Q369 1079 383 1065T432 1050Z" />
<glyph unicode="&#xab;" glyph-name="guillemotleft" horiz-adv-x="1038" d="M567 223H338L82 593V667L342 1036H565L354 630L567 223ZM1008 223H778L522 593V667L782 1036H1006L795 630L1008 223Z" />
<glyph unicode="&#xac;" glyph-name="logicalnot" horiz-adv-x="1597" d="M1526 1036V248H1239V782H51V1036H1526Z" />
<glyph unicode="&#xae;" glyph-name="registered" horiz-adv-x="2048" d="M528 585H623V1082H532V1293H1064Q1143 1293 1202 1268T1300 1204T1360 1116T1380 1023Q1380 971 1363 927T1307 848T1221 794Q1256 780 1277 753T1310 665L1325 585H1403V373H1075L1060
567Q1055 630 1046 652T1016 686T947 698H881V585H960V373H528V585ZM881 1082V900H947Q1016 900 1056 919T1096 989Q1096 1033 1058 1057T956 1082H881ZM102 831Q102 949 132 1058T218 1263T352 1436T525 1569T729 1655T958 1686Q1076 1686 1186 1656T1391 1570T1565
1436T1700 1263T1786 1059T1817 831Q1817 712 1787 603T1700 398T1566 225T1392 92T1186 6T958 -25Q839 -25 730 5T525 91T352 225T219 398T133 602T102 831ZM317 831Q317 741 339 659T403 505T503 375T632 275T786 211T958 188Q1048 188 1130 210T1284 274T1413
374T1512 504T1576 658T1599 831Q1599 921 1577 1003T1513 1157T1413 1286T1284 1386T1131 1450T958 1473Q869 1473 787 1451T633 1387T503 1287T404 1157T340 1004T317 831Z" />
<glyph unicode="&#xaf;" glyph-name="overscore" horiz-adv-x="831" d="M770 1176H82V1391H770V1176Z" />
<glyph unicode="&#xb0;" glyph-name="degree" horiz-adv-x="815" d="M410 1706Q474 1706 530 1683T627 1618T691 1519T715 1395Q715 1330 692 1274T627 1175T530 1108T410 1083Q345 1083 289 1107T191 1174T126 1274T102 1397Q102 1461 126 1517T192 1615T290
1681T410 1706ZM258 1389Q258 1360 270 1333T302 1286T348 1253T403 1241Q437 1241 465 1252T514 1283T545 1331T557 1393Q557 1427 546 1456T515 1505T468 1536T408 1548Q376 1548 349 1536T302 1503T270 1452T258 1389Z" />
<glyph unicode="&#xb1;" glyph-name="plusminus" horiz-adv-x="1229" d="M102 948H465V1311H762V948H1126V651H762V328H465V651H102V948ZM102 274H1126V0H102V274Z" />
<glyph unicode="&#xb2;" glyph-name="twosuperior" horiz-adv-x="721" d="M86 1034L356 1235Q378 1252 389 1265T406 1290T413 1309T414 1325Q414 1342 401 1354T362 1366Q342 1366 331 1359T314 1341T307 1320T305 1303H80Q79 1374 101 1426T164 1512T258 1562T377
1579Q427 1579 477 1565T567 1522T633 1450T659 1346Q659 1316 653 1293T634 1250T606 1214T569 1180L410 1047H659V842H86V1034Z" />
<glyph unicode="&#xb3;" glyph-name="threesuperior" horiz-adv-x="721" d="M410 1339Q410 1358 396 1375T354 1392Q329 1392 311 1377T293 1321H74Q72 1378 89 1427T142 1513T233 1570T361 1591Q416 1591 467 1573T557 1522T619 1447T642 1353Q642 1307 627 1275T594
1222Q612 1206 627 1183T649 1132T656 1075Q656 1027 634 981T572 900T478 844T359 823Q285 823 229 844T135 903T78 992T58 1102H277Q277 1078 284 1061T307 1032T353 1020Q379 1020 394 1029T416 1054T424 1087Q424 1116 405 1131T353 1147H254V1280H362Q382
1280 396 1296T410 1339Z" />
<glyph unicode="&#xb4;" glyph-name="acute" horiz-adv-x="680" d="M256 1489H582V1464L276 1178H41L256 1489Z" />
<glyph unicode="&#xb5;" glyph-name="mu" horiz-adv-x="1350" d="M1183 274H1308V0H870V88Q817 40 746 14T581 -12Q531 -12 486 -3V-471H154V1036H489V426Q489 322 542 271T679 219Q739 219 788 256T860 356V1036H1183V274Z" />
<glyph unicode="&#xb6;" glyph-name="paragraph" horiz-adv-x="1417" d="M436 532Q359 553 291 594T172 695T91 835T61 1014Q61 1119 103 1210T222 1370T408 1477T651 1516H1335V1241H1194V-362H901V1241H729V-362H436V532Z" />
<glyph unicode="&#xb7;" glyph-name="middot" horiz-adv-x="721" d="M201 633Q201 670 214 702T252 759T308 797T379 811Q415 811 447 797T503 759T541 703T555 633Q555 596 541 564T503 507T447 469T379 455Q341 455 309 469T252 507T215 563T201 633Z" />
<glyph unicode="&#xb8;" glyph-name="cedilla" horiz-adv-x="926" d="M182 -293Q223 -290 259 -274T325 -227T376 -154T408 -53L651 -139Q628 -218 586 -277T486 -375T358 -434T207 -455L182 -293Z" />
<glyph unicode="&#xb9;" glyph-name="onesuperior" horiz-adv-x="539" d="M51 1034H182V1284L41 1217V1450L279 1577H391V1034H512V840H51V1034Z" />
<glyph unicode="&#xba;" glyph-name="ordmasculine" horiz-adv-x="883" d="M61 1210Q61 1283 89 1349T168 1466T289 1547T442 1577Q524 1577 594 1547T714 1466T792 1349T821 1210Q821 1137 794 1071T716 953T597 872T442 842Q356 842 286 872T166 953T89 1070T61
1210ZM287 1210Q287 1185 299 1160T332 1116T381 1084T442 1071Q474 1071 502 1083T550 1115T582 1160T594 1210Q594 1238 583 1262T551 1305T502 1335T442 1346Q410 1346 382 1335T332 1306T299 1263T287 1210Z" />
<glyph unicode="&#xbb;" glyph-name="guillemotright" horiz-adv-x="1100" d="M244 630L33 1036H256L516 667V593L260 223H31L244 630ZM684 630L473 1036H696L956 667V593L700 223H471L684 630Z" />
<glyph unicode="&#xbc;" glyph-name="onequarter" horiz-adv-x="2350" d="M1660 1577H1916L671 -61H409L1660 1577ZM448 1034H579V1284L438 1217V1450L676 1577H788V1034H909V840H448V1034ZM1412 348L1692 764H1907L1625 342H1793V508H1995V342H2100V182H1995V0H1793V182H1414L1412
348Z" />
<glyph unicode="&#xbd;" glyph-name="onehalf" horiz-adv-x="2446" d="M504 1034H635V1284L494 1217V1450L732 1577H844V1034H965V840H504V1034ZM1716 1577H1972L727 -61H465L1716 1577ZM1491 190L1761 391Q1783 408 1794 421T1811 446T1818 465T1819 481Q1819
498 1806 510T1767 522Q1747 522 1736 515T1719 497T1712 476T1710 459H1485Q1484 530 1506 582T1569 668T1663 718T1782 735Q1832 735 1882 721T1972 678T2038 606T2064 502Q2064 472 2058 449T2039 406T2011 370T1974 336L1815 203H2064V-2H1491V190Z" />
<glyph unicode="&#xbe;" glyph-name="threequarters" horiz-adv-x="2266" d="M1576 1577H1832L587 -61H325L1576 1577ZM1328 348L1608 764H1823L1541 342H1709V508H1911V342H2016V182H1911V0H1709V182H1330L1328 348ZM642 1339Q642 1358 628 1375T586 1392Q561
1392 543 1377T525 1321H306Q304 1378 321 1427T374 1513T465 1570T593 1591Q648 1591 699 1573T789 1522T851 1447T874 1353Q874 1307 859 1275T826 1222Q844 1206 859 1183T881 1132T888 1075Q888 1027 866 981T804 900T710 844T591 823Q517 823 461 844T367
903T310 992T290 1102H509Q509 1078 516 1061T539 1032T585 1020Q611 1020 626 1029T648 1054T656 1087Q656 1116 637 1131T585 1147H486V1280H594Q614 1280 628 1296T642 1339Z" />
<glyph unicode="&#xbf;" glyph-name="questiondown" horiz-adv-x="1100" d="M380 964Q380 1001 393 1033T431 1090T487 1128T558 1142Q594 1142 626 1128T682 1090T720 1034T734 964Q734 927 720 895T682 838T626 800T558 786Q520 786 488 800T431 838T394 894T380
964ZM748 709Q748 639 746 586T738 492T719 418T686 357T635 303T562 246Q516 208 486 177T439 114T415 50T408 -24Q408 -83 437 -120T517 -157Q548 -157 574 -150T621 -124T652 -72T664 13L982 -18Q980 -128 944 -209T844 -345T694 -425T505 -452Q410 -452 327
-424T183 -341T86 -206T50 -22Q50 87 100 178T253 350Q306 388 341 421T397 493T426 583T435 709H748Z" />
<glyph unicode="&#xc0;" glyph-name="Agrave" horiz-adv-x="1491" d="M893 274H1044L976 492H510L442 274H602V0H27V274H140L553 1516H954L1358 274H1468V0H893V274ZM589 748H895L741 1241L589 748ZM777 1658L484 1944V1969H810L1006 1658H777Z" />
<glyph unicode="&#xc1;" glyph-name="Aacute" horiz-adv-x="1491" d="M893 274H1044L976 492H510L442 274H602V0H27V274H140L553 1516H954L1358 274H1468V0H893V274ZM589 748H895L741 1241L589 748ZM690 1969H1016V1944L710 1658H475L690 1969Z" />
<glyph unicode="&#xc2;" glyph-name="Acircumflex" horiz-adv-x="1491" d="M893 274H1044L976 492H510L442 274H602V0H27V274H140L553 1516H954L1358 274H1468V0H893V274ZM589 748H895L741 1241L589 748ZM352 1656L624 1981H864L1138 1656H893L745 1809L600 1656H352Z" />
<glyph unicode="&#xc3;" glyph-name="Atilde" horiz-adv-x="1491" d="M893 274H1044L976 492H510L442 274H602V0H27V274H140L553 1516H954L1358 274H1468V0H893V274ZM589 748H895L741 1241L589 748ZM592 1959Q634 1959 673 1945T749 1913T822 1881T893 1866Q935
1866 967 1881T1026 1934L1184 1864Q1169 1819 1142 1780T1078 1712T999 1666T909 1649Q857 1649 815 1662T736 1692T662 1723T586 1737Q541 1737 510 1719T459 1674L307 1744Q321 1798 354 1838T429 1905T513 1945T592 1959Z" />
<glyph unicode="&#xc4;" glyph-name="Adieresis" horiz-adv-x="1491" d="M893 274H1044L976 492H510L442 274H602V0H27V274H140L553 1516H954L1358 274H1468V0H893V274ZM589 748H895L741 1241L589 748ZM328 1823Q328 1860 341 1892T379 1949T435 1988T506 2002Q542
2002 574 1988T630 1950T668 1893T682 1823Q682 1786 668 1754T630 1697T574 1659T506 1645Q468 1645 436 1659T379 1697T342 1753T328 1823ZM807 1823Q807 1860 821 1892T859 1949T915 1988T986 2002Q1022 2002 1054 1988T1110 1950T1148 1893T1162 1823Q1162
1786 1148 1754T1110 1697T1054 1659T986 1645Q948 1645 916 1659T859 1697T821 1753T807 1823Z" />
<glyph unicode="&#xc5;" glyph-name="Aring" horiz-adv-x="1491" d="M893 274H1044L976 492H510L442 274H602V0H27V274H140L553 1516H954L1358 274H1468V0H893V274ZM589 748H895L741 1241L589 748ZM745 2026Q810 2026 868 2001T969 1933T1038 1832T1063 1709Q1063
1644 1038 1586T970 1485T868 1416T745 1391Q680 1391 622 1416T521 1484T453 1586T428 1709Q428 1774 453 1832T521 1933T622 2001T745 2026ZM620 1709Q620 1683 630 1660T657 1620T696 1594T745 1584Q771 1584 793 1593T832 1620T858 1660T868 1709Q868 1735
859 1757T833 1796T794 1822T745 1832Q719 1832 697 1823T657 1797T630 1758T620 1709Z" />
<glyph unicode="&#xc6;" glyph-name="AE" horiz-adv-x="2093" d="M-34 274H92L883 1516H2032V999H1706V1214H1336V909H1626V635H1336V274H1706V543H2032V0H883V274H1004V412H507L424 274H540V0H-34V274ZM671 686H1004V1254L671 686Z" />
<glyph unicode="&#xc7;" glyph-name="Ccedilla" horiz-adv-x="1554" d="M1106 1055Q1050 1135 1005 1168T908 1216T799 1231Q715 1231 643 1194T519 1092T436 942T406 760Q406 663 435 578T517 428T641 327T799 289Q859 289 911 308T1005 360T1080 433T1130 520L1452
430Q1421 332 1361 249T1217 104T1027 8T799 -27Q696 -27 602 1T427 80T279 203T165 362T92 550T66 760Q66 923 123 1065T279 1314T511 1482T799 1544Q922 1544 1006 1514T1191 1393H1415V1055H1106ZM542 -293Q583 -290 619 -274T685 -227T736 -154T768 -53L1011
-139Q988 -218 946 -277T846 -375T718 -434T567 -455L542 -293Z" />
<glyph unicode="&#xc8;" glyph-name="Egrave" horiz-adv-x="1380" d="M113 1516H1319V999H993V1214H604V915H905V625H604V274H993V543H1319V0H113V274H272V1214H113V1516ZM722 1658L429 1944V1969H755L951 1658H722Z" />
<glyph unicode="&#xc9;" glyph-name="Eacute" horiz-adv-x="1380" d="M113 1516H1319V999H993V1214H604V915H905V625H604V274H993V543H1319V0H113V274H272V1214H113V1516ZM634 1969H960V1944L654 1658H419L634 1969Z" />
<glyph unicode="&#xca;" glyph-name="Ecircumflex" horiz-adv-x="1380" d="M113 1516H1319V999H993V1214H604V915H905V625H604V274H993V543H1319V0H113V274H272V1214H113V1516ZM297 1656L569 1981H809L1083 1656H838L690 1809L545 1656H297Z" />
<glyph unicode="&#xcb;" glyph-name="Edieresis" horiz-adv-x="1380" d="M113 1516H1319V999H993V1214H604V915H905V625H604V274H993V543H1319V0H113V274H272V1214H113V1516ZM273 1823Q273 1860 286 1892T324 1949T380 1988T451 2002Q487 2002 519 1988T575 1950T613
1893T627 1823Q627 1786 613 1754T575 1697T519 1659T451 1645Q413 1645 381 1659T324 1697T287 1753T273 1823ZM752 1823Q752 1860 766 1892T804 1949T860 1988T931 2002Q967 2002 999 1988T1055 1950T1093 1893T1107 1823Q1107 1786 1093 1754T1055 1697T999
1659T931 1645Q893 1645 861 1659T804 1697T766 1753T752 1823Z" />
<glyph unicode="&#xcc;" glyph-name="Igrave" horiz-adv-x="810" d="M113 1516H762V1242H602V274H762V0H113V274H270V1242H113V1516ZM438 1658L145 1944V1969H471L667 1658H438Z" />
<glyph unicode="&#xcd;" glyph-name="Iacute" horiz-adv-x="810" d="M113 1516H762V1242H602V274H762V0H113V274H270V1242H113V1516ZM349 1969H675V1944L369 1658H134L349 1969Z" />
<glyph unicode="&#xce;" glyph-name="Icircumflex" horiz-adv-x="810" d="M113 1516H762V1242H602V274H762V0H113V274H270V1242H113V1516ZM13 1656L285 1981H525L799 1656H554L406 1809L261 1656H13Z" />
<glyph unicode="&#xcf;" glyph-name="Idieresis" horiz-adv-x="810" d="M113 1516H762V1242H602V274H762V0H113V274H270V1242H113V1516ZM-11 1823Q-11 1860 2 1892T40 1949T96 1988T167 2002Q203 2002 235 1988T291 1950T329 1893T343 1823Q343 1786 329 1754T291
1697T235 1659T167 1645Q129 1645 97 1659T40 1697T3 1753T-11 1823ZM468 1823Q468 1860 482 1892T520 1949T576 1988T647 2002Q683 2002 715 1988T771 1950T809 1893T823 1823Q823 1786 809 1754T771 1697T715 1659T647 1645Q609 1645 577 1659T520 1697T482 1753T468
1823Z" />
<glyph unicode="&#xd0;" glyph-name="Eth" horiz-adv-x="1468" d="M82 1516H664Q768 1516 863 1489T1041 1413T1191 1296T1307 1143T1381 962T1407 760Q1407 655 1381 558T1307 377T1192 223T1042 104T864 27T664 0H82V274H203V621H65V895H203V1241H82V1516ZM535
621V274H662Q743 274 815 312T940 415T1024 569T1055 760Q1055 861 1024 949T940 1102T815 1204T662 1241H535V895H692V621H535Z" />
<glyph unicode="&#xd1;" glyph-name="Ntilde" horiz-adv-x="1698" d="M1071 1516H1647V1241H1524V0H1192L561 980V274H688V0H113V274H238V1241H115V1516H573L1200 523V1241H1071V1516ZM695 1959Q737 1959 776 1945T852 1913T925 1881T996 1866Q1038 1866 1070
1881T1129 1934L1287 1864Q1272 1819 1245 1780T1181 1712T1102 1666T1012 1649Q960 1649 918 1662T839 1692T765 1723T689 1737Q644 1737 613 1719T562 1674L410 1744Q424 1798 457 1838T532 1905T616 1945T695 1959Z" />
<glyph unicode="&#xd2;" glyph-name="Ograve" horiz-adv-x="1620" d="M799 -27Q696 -27 602 1T427 80T279 202T165 361T92 549T66 758Q66 867 92 967T165 1155T278 1314T426 1437T602 1516T799 1544Q902 1544 996 1516T1172 1437T1320 1315T1434 1156T1508 968T1534
758Q1534 650 1508 550T1435 362T1321 203T1173 80T997 1T799 -27ZM799 287Q886 287 958 324T1083 426T1163 576T1192 758Q1192 855 1163 941T1082 1091T957 1193T799 1231Q713 1231 641 1194T517 1092T436 941T406 758Q406 662 435 577T517 427T641 325T799 287ZM831
1658L538 1944V1969H864L1060 1658H831Z" />
<glyph unicode="&#xd3;" glyph-name="Oacute" horiz-adv-x="1620" d="M799 -27Q696 -27 602 1T427 80T279 202T165 361T92 549T66 758Q66 867 92 967T165 1155T278 1314T426 1437T602 1516T799 1544Q902 1544 996 1516T1172 1437T1320 1315T1434 1156T1508 968T1534
758Q1534 650 1508 550T1435 362T1321 203T1173 80T997 1T799 -27ZM799 287Q886 287 958 324T1083 426T1163 576T1192 758Q1192 855 1163 941T1082 1091T957 1193T799 1231Q713 1231 641 1194T517 1092T436 941T406 758Q406 662 435 577T517 427T641 325T799 287ZM744
1969H1070V1944L764 1658H529L744 1969Z" />
<glyph unicode="&#xd4;" glyph-name="Ocircumflex" horiz-adv-x="1620" d="M799 -27Q696 -27 602 1T427 80T279 202T165 361T92 549T66 758Q66 867 92 967T165 1155T278 1314T426 1437T602 1516T799 1544Q902 1544 996 1516T1172 1437T1320 1315T1434 1156T1508
968T1534 758Q1534 650 1508 550T1435 362T1321 203T1173 80T997 1T799 -27ZM799 287Q886 287 958 324T1083 426T1163 576T1192 758Q1192 855 1163 941T1082 1091T957 1193T799 1231Q713 1231 641 1194T517 1092T436 941T406 758Q406 662 435 577T517 427T641 325T799
287ZM406 1656L678 1981H918L1192 1656H947L799 1809L654 1656H406Z" />
<glyph unicode="&#xd5;" glyph-name="Otilde" horiz-adv-x="1620" d="M799 -27Q696 -27 602 1T427 80T279 202T165 361T92 549T66 758Q66 867 92 967T165 1155T278 1314T426 1437T602 1516T799 1544Q902 1544 996 1516T1172 1437T1320 1315T1434 1156T1508 968T1534
758Q1534 650 1508 550T1435 362T1321 203T1173 80T997 1T799 -27ZM799 287Q886 287 958 324T1083 426T1163 576T1192 758Q1192 855 1163 941T1082 1091T957 1193T799 1231Q713 1231 641 1194T517 1092T436 941T406 758Q406 662 435 577T517 427T641 325T799 287ZM646
1959Q688 1959 727 1945T803 1913T876 1881T947 1866Q989 1866 1021 1881T1080 1934L1238 1864Q1223 1819 1196 1780T1132 1712T1053 1666T963 1649Q911 1649 869 1662T790 1692T716 1723T640 1737Q595 1737 564 1719T513 1674L361 1744Q375 1798 408 1838T483
1905T567 1945T646 1959Z" />
<glyph unicode="&#xd6;" glyph-name="Odieresis" horiz-adv-x="1620" d="M799 -27Q696 -27 602 1T427 80T279 202T165 361T92 549T66 758Q66 867 92 967T165 1155T278 1314T426 1437T602 1516T799 1544Q902 1544 996 1516T1172 1437T1320 1315T1434 1156T1508
968T1534 758Q1534 650 1508 550T1435 362T1321 203T1173 80T997 1T799 -27ZM799 287Q886 287 958 324T1083 426T1163 576T1192 758Q1192 855 1163 941T1082 1091T957 1193T799 1231Q713 1231 641 1194T517 1092T436 941T406 758Q406 662 435 577T517 427T641 325T799
287ZM382 1823Q382 1860 395 1892T433 1949T489 1988T560 2002Q596 2002 628 1988T684 1950T722 1893T736 1823Q736 1786 722 1754T684 1697T628 1659T560 1645Q522 1645 490 1659T433 1697T396 1753T382 1823ZM861 1823Q861 1860 875 1892T913 1949T969 1988T1040
2002Q1076 2002 1108 1988T1164 1950T1202 1893T1216 1823Q1216 1786 1202 1754T1164 1697T1108 1659T1040 1645Q1002 1645 970 1659T913 1697T875 1753T861 1823Z" />
<glyph unicode="&#xd7;" glyph-name="multiply" horiz-adv-x="1239" d="M417 666L61 1053L283 1253L619 887L956 1253L1178 1053L822 666L1165 293L944 94L619 446L295 94L74 293L417 666Z" />
<glyph unicode="&#xd8;" glyph-name="Oslash" horiz-adv-x="1591" d="M256 229Q166 334 116 469T66 758Q66 867 92 967T165 1155T278 1314T426 1437T602 1516T799 1544Q904 1544 998 1515T1176 1434L1306 1604H1562L1332 1301Q1426 1195 1480 1056T1534 758Q1534
650 1508 550T1435 362T1321 203T1173 80T997 1T799 -27Q691 -27 594 3T411 90L317 -34H55L256 229ZM799 287Q886 287 958 324T1083 426T1163 576T1192 758Q1192 833 1174 901T1124 1028L605 345Q647 317 696 302T799 287ZM406 758Q406 688 421 624T466 504L982
1179Q941 1204 896 1217T799 1231Q713 1231 641 1194T517 1092T436 941T406 758Z" />
<glyph unicode="&#xd9;" glyph-name="Ugrave" horiz-adv-x="1561" d="M51 1516H659V1241H520V612Q520 526 539 466T594 368T677 313T782 295Q841 295 889 310T972 361T1025 459T1044 612V1241H883V1516H1491V1241H1370V651Q1370 491 1324 367T1198 156T1009 25T776
-20Q653 -20 546 24T360 153T234 359T188 633V1241H51V1516ZM812 1658L519 1944V1969H845L1041 1658H812Z" />
<glyph unicode="&#xda;" glyph-name="Uacute" horiz-adv-x="1561" d="M51 1516H659V1241H520V612Q520 526 539 466T594 368T677 313T782 295Q841 295 889 310T972 361T1025 459T1044 612V1241H883V1516H1491V1241H1370V651Q1370 491 1324 367T1198 156T1009 25T776
-20Q653 -20 546 24T360 153T234 359T188 633V1241H51V1516ZM725 1969H1051V1944L745 1658H510L725 1969Z" />
<glyph unicode="&#xdb;" glyph-name="Ucircumflex" horiz-adv-x="1561" d="M51 1516H659V1241H520V612Q520 526 539 466T594 368T677 313T782 295Q841 295 889 310T972 361T1025 459T1044 612V1241H883V1516H1491V1241H1370V651Q1370 491 1324 367T1198 156T1009
25T776 -20Q653 -20 546 24T360 153T234 359T188 633V1241H51V1516ZM387 1656L659 1981H899L1173 1656H928L780 1809L635 1656H387Z" />
<glyph unicode="&#xdc;" glyph-name="Udieresis" horiz-adv-x="1561" d="M51 1516H659V1241H520V612Q520 526 539 466T594 368T677 313T782 295Q841 295 889 310T972 361T1025 459T1044 612V1241H883V1516H1491V1241H1370V651Q1370 491 1324 367T1198 156T1009
25T776 -20Q653 -20 546 24T360 153T234 359T188 633V1241H51V1516ZM363 1823Q363 1860 376 1892T414 1949T470 1988T541 2002Q577 2002 609 1988T665 1950T703 1893T717 1823Q717 1786 703 1754T665 1697T609 1659T541 1645Q503 1645 471 1659T414 1697T377 1753T363
1823ZM842 1823Q842 1860 856 1892T894 1949T950 1988T1021 2002Q1057 2002 1089 1988T1145 1950T1183 1893T1197 1823Q1197 1786 1183 1754T1145 1697T1089 1659T1021 1645Q983 1645 951 1659T894 1697T856 1753T842 1823Z" />
<glyph unicode="&#xdd;" glyph-name="Yacute" horiz-adv-x="1536" d="M47 1516H696V1241H569L772 893L987 1241H842V1516H1491V1241H1379L928 629V274H1112V0H436V274H604V633L180 1241H47V1516ZM712 1969H1038V1944L732 1658H497L712 1969Z" />
<glyph unicode="&#xde;" glyph-name="Thorn" horiz-adv-x="1450" d="M112 1516H761V1241H603V1194H813Q930 1194 1028 1161T1197 1068T1308 929T1348 756Q1348 671 1317 593T1219 455T1052 360T813 324H603V274H761V0H112V274H271V1241H112V1516ZM603 920V594H739Q853
594 920 632T987 754Q987 832 924 876T739 920H603Z" />
<glyph unicode="&#xdf;" glyph-name="germandbls" horiz-adv-x="1354" d="M682 979H754Q791 980 813 995T850 1033T874 1080T883 1128Q883 1207 837 1256T707 1305Q671 1305 642 1293T591 1257T559 1200T547 1126V2H510V0H37V274H244V1182Q244 1252 275 1323T365
1451T510 1543T707 1579Q814 1579 900 1547T1047 1458T1141 1328T1174 1169Q1174 1119 1166 1078T1142 1004T1108 944T1066 898Q1171 834 1229 730T1288 494Q1288 366 1247 271T1135 113T966 19T754 -12Q734 -12 717 -11T680 -6L694 270Q710 267 722 267T750 266Q795
266 834 282T901 328T946 396T963 483Q963 527 947 565T902 632T835 677T752 694H684L682 979Z" />
<glyph unicode="&#xe0;" glyph-name="agrave" horiz-adv-x="1280" d="M717 56Q682 34 653 19T595 -6T535 -20T467 -25Q374 -25 301 0T177 70T99 175T72 307Q72 379 99 440T179 544T306 612T479 637Q550 637 608 630T717 611V643Q717 682 702 710T660 757T595 784T512
793Q418 793 347 775T209 721L113 915Q215 985 326 1022T563 1059Q660 1059 742 1038T884 968T976 841T1010 651V274H1149V0H717V56ZM489 211Q560 211 618 234T717 290V422H477Q454 422 432 415T393 395T365 363T354 319Q354 273 387 242T489 211ZM662 1178L369
1464V1489H695L891 1178H662Z" />
<glyph unicode="&#xe1;" glyph-name="aacute" horiz-adv-x="1280" d="M717 56Q682 34 653 19T595 -6T535 -20T467 -25Q374 -25 301 0T177 70T99 175T72 307Q72 379 99 440T179 544T306 612T479 637Q550 637 608 630T717 611V643Q717 682 702 710T660 757T595 784T512
793Q418 793 347 775T209 721L113 915Q215 985 326 1022T563 1059Q660 1059 742 1038T884 968T976 841T1010 651V274H1149V0H717V56ZM489 211Q560 211 618 234T717 290V422H477Q454 422 432 415T393 395T365 363T354 319Q354 273 387 242T489 211ZM574 1489H900V1464L594
1178H359L574 1489Z" />
<glyph unicode="&#xe2;" glyph-name="acircumflex" horiz-adv-x="1280" d="M717 56Q682 34 653 19T595 -6T535 -20T467 -25Q374 -25 301 0T177 70T99 175T72 307Q72 379 99 440T179 544T306 612T479 637Q550 637 608 630T717 611V643Q717 682 702 710T660 757T595
784T512 793Q418 793 347 775T209 721L113 915Q215 985 326 1022T563 1059Q660 1059 742 1038T884 968T976 841T1010 651V274H1149V0H717V56ZM489 211Q560 211 618 234T717 290V422H477Q454 422 432 415T393 395T365 363T354 319Q354 273 387 242T489 211ZM237
1176L509 1501H749L1023 1176H778L630 1329L485 1176H237Z" />
<glyph unicode="&#xe3;" glyph-name="atilde" horiz-adv-x="1280" d="M717 56Q682 34 653 19T595 -6T535 -20T467 -25Q374 -25 301 0T177 70T99 175T72 307Q72 379 99 440T179 544T306 612T479 637Q550 637 608 630T717 611V643Q717 682 702 710T660 757T595 784T512
793Q418 793 347 775T209 721L113 915Q215 985 326 1022T563 1059Q660 1059 742 1038T884 968T976 841T1010 651V274H1149V0H717V56ZM489 211Q560 211 618 234T717 290V422H477Q454 422 432 415T393 395T365 363T354 319Q354 273 387 242T489 211ZM476 1479Q518
1479 557 1465T633 1433T706 1401T777 1386Q819 1386 851 1401T910 1454L1068 1384Q1053 1339 1026 1300T962 1232T883 1186T793 1169Q741 1169 699 1182T620 1212T546 1243T470 1257Q425 1257 394 1239T343 1194L191 1264Q205 1318 238 1358T313 1425T397 1465T476
1479Z" />
<glyph unicode="&#xe4;" glyph-name="adieresis" horiz-adv-x="1280" d="M717 56Q682 34 653 19T595 -6T535 -20T467 -25Q374 -25 301 0T177 70T99 175T72 307Q72 379 99 440T179 544T306 612T479 637Q550 637 608 630T717 611V643Q717 682 702 710T660 757T595
784T512 793Q418 793 347 775T209 721L113 915Q215 985 326 1022T563 1059Q660 1059 742 1038T884 968T976 841T1010 651V274H1149V0H717V56ZM489 211Q560 211 618 234T717 290V422H477Q454 422 432 415T393 395T365 363T354 319Q354 273 387 242T489 211ZM213
1343Q213 1380 226 1412T264 1469T320 1508T391 1522Q427 1522 459 1508T515 1470T553 1413T567 1343Q567 1306 553 1274T515 1217T459 1179T391 1165Q353 1165 321 1179T264 1217T227 1273T213 1343ZM692 1343Q692 1380 706 1412T744 1469T800 1508T871 1522Q907
1522 939 1508T995 1470T1033 1413T1047 1343Q1047 1306 1033 1274T995 1217T939 1179T871 1165Q833 1165 801 1179T744 1217T706 1273T692 1343Z" />
<glyph unicode="&#xe5;" glyph-name="aring" horiz-adv-x="1280" d="M717 56Q682 34 653 19T595 -6T535 -20T467 -25Q374 -25 301 0T177 70T99 175T72 307Q72 379 99 440T179 544T306 612T479 637Q550 637 608 630T717 611V643Q717 682 702 710T660 757T595 784T512
793Q418 793 347 775T209 721L113 915Q215 985 326 1022T563 1059Q660 1059 742 1038T884 968T976 841T1010 651V274H1149V0H717V56ZM489 211Q560 211 618 234T717 290V422H477Q454 422 432 415T393 395T365 363T354 319Q354 273 387 242T489 211ZM576 1733Q641
1733 699 1708T800 1640T869 1539T894 1416Q894 1351 869 1293T801 1192T699 1123T576 1098Q511 1098 453 1123T352 1191T284 1293T259 1416Q259 1481 284 1539T352 1640T453 1708T576 1733ZM451 1416Q451 1390 461 1367T488 1327T527 1301T576 1291Q602 1291 624
1300T663 1327T689 1367T699 1416Q699 1442 690 1464T664 1503T625 1529T576 1539Q550 1539 528 1530T488 1504T461 1465T451 1416Z" />
<glyph unicode="&#xe6;" glyph-name="ae" horiz-adv-x="1851" d="M711 643Q711 722 657 757T512 793Q418 793 347 775T209 721L113 915Q215 985 326 1022T563 1059Q660 1059 741 1038T894 954Q954 1005 1031 1038Q1131 1081 1253 1081Q1375 1081 1469 1041T1629
929T1729 761T1767 596T1770 504T1769 453H1006L1009 422Q1020 377 1046 343T1109 286T1189 252T1278 240Q1323 240 1363 245T1442 260T1516 282T1589 309L1699 104Q1642 69 1595 45T1499 4T1397 -19T1271 -27Q1136 -27 1031 17T855 137Q827 109 791 81T707 28T599
-10T467 -25Q374 -25 301 0T177 70T99 175T72 307Q72 379 99 440T179 544T306 612T479 637Q555 637 617 629Q667 622 711 613V643ZM432 415Q410 408 393 395T365 363T354 319Q354 273 387 242T489 211Q582 211 648 241Q703 267 749 305Q747 310 745 316Q726 367
717 422H477Q454 422 432 415ZM1245 831Q1189 831 1150 818T1083 781T1040 727T1015 664H1448Q1441 698 1428 728T1392 781T1334 817T1245 831Z" />
<glyph unicode="&#xe7;" glyph-name="ccedilla" horiz-adv-x="1180" d="M856 678Q813 732 760 759T635 783Q577 787 530 767T448 711T394 626T375 514Q375 459 395 410T449 326T531 270T635 246Q682 250 720 265T789 305T840 360T874 418L1149 342Q1132 282 1091
217T983 99T825 10T616 -25Q497 -25 397 18T225 137T113 313T72 530Q72 645 113 743T228 915T401 1030T620 1067Q704 1071 783 1048T933 979H1132V678H856ZM355 -293Q396 -290 432 -274T498 -227T549 -154T581 -53L824 -139Q801 -218 759 -277T659 -375T531 -434T380
-455L355 -293Z" />
<glyph unicode="&#xe8;" glyph-name="egrave" horiz-adv-x="1186" d="M349 453L352 422Q363 377 389 343T452 286T532 252T621 240Q666 240 706 245T785 260T859 282T932 309L1042 104Q985 69 938 45T842 4T740 -19T614 -27Q479 -27 374 17T198 138T89 316T51
532Q51 646 90 746T202 920T374 1038T596 1081Q718 1081 812 1041T972 929T1072 761T1110 553Q1113 528 1113 504T1112 453H349ZM588 831Q532 831 493 818T426 781T383 727T358 664H791Q784 698 771 728T735 781T677 817T588 831ZM625 1178L332 1464V1489H658L854
1178H625Z" />
<glyph unicode="&#xe9;" glyph-name="eacute" horiz-adv-x="1186" d="M349 453L352 422Q363 377 389 343T452 286T532 252T621 240Q666 240 706 245T785 260T859 282T932 309L1042 104Q985 69 938 45T842 4T740 -19T614 -27Q479 -27 374 17T198 138T89 316T51
532Q51 646 90 746T202 920T374 1038T596 1081Q718 1081 812 1041T972 929T1072 761T1110 553Q1113 528 1113 504T1112 453H349ZM588 831Q532 831 493 818T426 781T383 727T358 664H791Q784 698 771 728T735 781T677 817T588 831ZM537 1489H863V1464L557 1178H322L537
1489Z" />
<glyph unicode="&#xea;" glyph-name="ecircumflex" horiz-adv-x="1186" d="M349 453L352 422Q363 377 389 343T452 286T532 252T621 240Q666 240 706 245T785 260T859 282T932 309L1042 104Q985 69 938 45T842 4T740 -19T614 -27Q479 -27 374 17T198 138T89 316T51
532Q51 646 90 746T202 920T374 1038T596 1081Q718 1081 812 1041T972 929T1072 761T1110 553Q1113 528 1113 504T1112 453H349ZM588 831Q532 831 493 818T426 781T383 727T358 664H791Q784 698 771 728T735 781T677 817T588 831ZM200 1176L472 1501H712L986 1176H741L593
1329L448 1176H200Z" />
<glyph unicode="&#xeb;" glyph-name="edieresis" horiz-adv-x="1186" d="M349 453L352 422Q363 377 389 343T452 286T532 252T621 240Q666 240 706 245T785 260T859 282T932 309L1042 104Q985 69 938 45T842 4T740 -19T614 -27Q479 -27 374 17T198 138T89 316T51
532Q51 646 90 746T202 920T374 1038T596 1081Q718 1081 812 1041T972 929T1072 761T1110 553Q1113 528 1113 504T1112 453H349ZM588 831Q532 831 493 818T426 781T383 727T358 664H791Q784 698 771 728T735 781T677 817T588 831ZM176 1343Q176 1380 189 1412T227
1469T283 1508T354 1522Q390 1522 422 1508T478 1470T516 1413T530 1343Q530 1306 516 1274T478 1217T422 1179T354 1165Q316 1165 284 1179T227 1217T190 1273T176 1343ZM655 1343Q655 1380 669 1412T707 1469T763 1508T834 1522Q870 1522 902 1508T958 1470T996
1413T1010 1343Q1010 1306 996 1274T958 1217T902 1179T834 1165Q796 1165 764 1179T707 1217T669 1273T655 1343Z" />
<glyph unicode="&#xec;" glyph-name="igrave" horiz-adv-x="790" d="M80 1037L547 1036V274H689V0H81V274H237V762H80V1037ZM604 1178L311 1464V1489H637L833 1178H604Z" />
<glyph unicode="&#xed;" glyph-name="iacute" horiz-adv-x="790" d="M339 1489H665V1464L359 1178H124L339 1489ZM80 1037L547 1036V274H689V0H81V274H237V762H80V1037Z" />
<glyph unicode="&#xee;" glyph-name="icircumflex" horiz-adv-x="790" d="M259 1176L531 1501H771L1045 1176H800L652 1329L507 1176H259ZM80 1037L547 1036V274H689V0H81V274H237V762H80V1037Z" />
<glyph unicode="&#xef;" glyph-name="idieresis" horiz-adv-x="790" d="M235 1343Q235 1380 248 1412T286 1469T342 1508T413 1522Q449 1522 481 1508T537 1470T575 1413T589 1343Q589 1306 575 1274T537 1217T481 1179T413 1165Q375 1165 343 1179T286 1217T249
1273T235 1343ZM714 1343Q714 1380 728 1412T766 1469T822 1508T893 1522Q929 1522 961 1508T1017 1470T1055 1413T1069 1343Q1069 1306 1055 1274T1017 1217T961 1179T893 1165Q855 1165 823 1179T766 1217T728 1273T714 1343ZM80 1037L547 1036V274H689V0H81V274H237V762H80V1037Z"
/>
<glyph unicode="&#xf0;" glyph-name="eth" horiz-adv-x="1250" d="M985 1213L850 1180L1030 856Q1054 813 1076 771T1115 686T1143 598T1153 502Q1153 397 1112 306T999 148T832 43T631 4Q523 4 427 42T260 149T148 310T106 512Q106 601 137 680T224 821T353 926T512
985Q535 990 560 992T612 994L547 1108L328 1055L264 1323L406 1357L305 1534H655L712 1430L921 1480L985 1213ZM637 711Q589 711 546 696T472 654T422 589T403 504Q403 455 423 417T475 352T548 311T631 297Q689 297 731 316T801 367T842 434T856 506Q856 556
839 594T793 659T724 698T637 711Z" />
<glyph unicode="&#xf1;" glyph-name="ntilde" horiz-adv-x="1460" d="M932 596Q932 683 886 732T764 782Q712 782 659 759T556 673V274H724V0H80V274H232V762H82V1036H554V945Q619 996 699 1025T869 1055Q1056 1055 1157 951T1258 645V274H1405V0H932V596ZM576
1479Q618 1479 657 1465T733 1433T806 1401T877 1386Q919 1386 951 1401T1010 1454L1168 1384Q1153 1339 1126 1300T1062 1232T983 1186T893 1169Q841 1169 799 1182T720 1212T646 1243T570 1257Q525 1257 494 1239T443 1194L291 1264Q305 1318 338 1358T413 1425T497
1465T576 1479Z" />
<glyph unicode="&#xf2;" glyph-name="ograve" horiz-adv-x="1245" d="M72 522Q72 635 113 734T227 907T401 1024T623 1067Q744 1067 845 1024T1020 907T1133 734T1174 522Q1174 409 1135 310T1023 136T849 18T623 -25Q498 -25 397 18T223 135T112 308T72 522ZM371
522Q371 463 391 414T445 328T525 272T623 252Q676 252 721 271T800 327T853 412T872 522Q872 584 853 634T801 719T722 772T623 790Q571 791 526 773T446 719T391 634T371 522ZM654 1178L361 1464V1489H687L883 1178H654Z" />
<glyph unicode="&#xf3;" glyph-name="oacute" horiz-adv-x="1245" d="M72 522Q72 635 113 734T227 907T401 1024T623 1067Q744 1067 845 1024T1020 907T1133 734T1174 522Q1174 409 1135 310T1023 136T849 18T623 -25Q498 -25 397 18T223 135T112 308T72 522ZM371
522Q371 463 391 414T445 328T525 272T623 252Q676 252 721 271T800 327T853 412T872 522Q872 584 853 634T801 719T722 772T623 790Q571 791 526 773T446 719T391 634T371 522ZM567 1489H893V1464L587 1178H352L567 1489Z" />
<glyph unicode="&#xf4;" glyph-name="ocircumflex" horiz-adv-x="1245" d="M72 522Q72 635 113 734T227 907T401 1024T623 1067Q744 1067 845 1024T1020 907T1133 734T1174 522Q1174 409 1135 310T1023 136T849 18T623 -25Q498 -25 397 18T223 135T112 308T72
522ZM371 522Q371 463 391 414T445 328T525 272T623 252Q676 252 721 271T800 327T853 412T872 522Q872 584 853 634T801 719T722 772T623 790Q571 791 526 773T446 719T391 634T371 522ZM229 1176L501 1501H741L1015 1176H770L622 1329L477 1176H229Z" />
<glyph unicode="&#xf5;" glyph-name="otilde" horiz-adv-x="1245" d="M72 522Q72 635 113 734T227 907T401 1024T623 1067Q744 1067 845 1024T1020 907T1133 734T1174 522Q1174 409 1135 310T1023 136T849 18T623 -25Q498 -25 397 18T223 135T112 308T72 522ZM371
522Q371 463 391 414T445 328T525 272T623 252Q676 252 721 271T800 327T853 412T872 522Q872 584 853 634T801 719T722 772T623 790Q571 791 526 773T446 719T391 634T371 522ZM469 1479Q511 1479 550 1465T626 1433T699 1401T770 1386Q812 1386 844 1401T903
1454L1061 1384Q1046 1339 1019 1300T955 1232T876 1186T786 1169Q734 1169 692 1182T613 1212T539 1243T463 1257Q418 1257 387 1239T336 1194L184 1264Q198 1318 231 1358T306 1425T390 1465T469 1479Z" />
<glyph unicode="&#xf6;" glyph-name="odieresis" horiz-adv-x="1245" d="M72 522Q72 635 113 734T227 907T401 1024T623 1067Q744 1067 845 1024T1020 907T1133 734T1174 522Q1174 409 1135 310T1023 136T849 18T623 -25Q498 -25 397 18T223 135T112 308T72 522ZM371
522Q371 463 391 414T445 328T525 272T623 252Q676 252 721 271T800 327T853 412T872 522Q872 584 853 634T801 719T722 772T623 790Q571 791 526 773T446 719T391 634T371 522ZM205 1343Q205 1380 218 1412T256 1469T312 1508T383 1522Q419 1522 451 1508T507
1470T545 1413T559 1343Q559 1306 545 1274T507 1217T451 1179T383 1165Q345 1165 313 1179T256 1217T219 1273T205 1343ZM684 1343Q684 1380 698 1412T736 1469T792 1508T863 1522Q899 1522 931 1508T987 1470T1025 1413T1039 1343Q1039 1306 1025 1274T987 1217T931
1179T863 1165Q825 1165 793 1179T736 1217T698 1273T684 1343Z" />
<glyph unicode="&#xf7;" glyph-name="divide" horiz-adv-x="1270" d="M52 668H1177V394H52V668ZM398 907Q398 944 411 976T449 1033T505 1071T576 1085Q612 1085 644 1071T700 1033T738 977T752 907Q752 870 738 838T700 781T644 743T576 729Q538 729 506 743T449
781T412 837T398 907ZM398 145Q398 182 411 214T449 271T505 310T576 324Q612 324 644 310T700 272T738 215T752 145Q752 108 738 76T700 19T644 -19T576 -33Q538 -33 506 -19T449 19T412 75T398 145Z" />
<glyph unicode="&#xf8;" glyph-name="oslash" horiz-adv-x="1196" d="M194 155Q131 228 97 321T62 522Q62 635 103 734T217 907T391 1024T613 1067Q679 1067 738 1054T852 1017L966 1167H1222L1018 898Q1087 824 1125 728T1164 522Q1164 409 1125 310T1013 136T839
18T613 -25Q542 -25 479 -11T360 29L292 -61H30L194 155ZM862 522Q862 596 834 655L538 263Q574 252 613 252Q666 252 711 271T790 327T843 412T862 522ZM361 522Q361 456 385 404L674 784Q648 791 613 791Q561 791 516 773T436 719T381 634T361 522Z" />
<glyph unicode="&#xf9;" glyph-name="ugrave" horiz-adv-x="1410" d="M723 1036H1213V274H1338V0H899V88Q846 40 775 14T611 -12Q525 -12 449 15T317 96T228 233T195 426V762H60V1036H518V426Q518 322 571 271T709 219Q769 219 818 256T889 356V762H723V1036ZM737
1178L444 1464V1489H770L966 1178H737Z" />
<glyph unicode="&#xfa;" glyph-name="uacute" horiz-adv-x="1410" d="M723 1036H1213V274H1338V0H899V88Q846 40 775 14T611 -12Q525 -12 449 15T317 96T228 233T195 426V762H60V1036H518V426Q518 322 571 271T709 219Q769 219 818 256T889 356V762H723V1036ZM649
1489H975V1464L669 1178H434L649 1489Z" />
<glyph unicode="&#xfb;" glyph-name="ucircumflex" horiz-adv-x="1410" d="M723 1036H1213V274H1338V0H899V88Q846 40 775 14T611 -12Q525 -12 449 15T317 96T228 233T195 426V762H60V1036H518V426Q518 322 571 271T709 219Q769 219 818 256T889 356V762H723V1036ZM312
1176L584 1501H824L1098 1176H853L705 1329L560 1176H312Z" />
<glyph unicode="&#xfc;" glyph-name="udieresis" horiz-adv-x="1410" d="M723 1036H1213V274H1338V0H899V88Q846 40 775 14T611 -12Q525 -12 449 15T317 96T228 233T195 426V762H60V1036H518V426Q518 322 571 271T709 219Q769 219 818 256T889 356V762H723V1036ZM288
1343Q288 1380 301 1412T339 1469T395 1508T466 1522Q502 1522 534 1508T590 1470T628 1413T642 1343Q642 1306 628 1274T590 1217T534 1179T466 1165Q428 1165 396 1179T339 1217T302 1273T288 1343ZM767 1343Q767 1380 781 1412T819 1469T875 1508T946 1522Q982
1522 1014 1508T1070 1470T1108 1413T1122 1343Q1122 1306 1108 1274T1070 1217T1014 1179T946 1165Q908 1165 876 1179T819 1217T781 1273T767 1343Z" />
<glyph unicode="&#xfd;" glyph-name="yacute" horiz-adv-x="1241" d="M51 1036H559V762H479L628 374L781 762H692V1036H1200V762H1087L686 -197H864V-471H221V-197H402L480 0L156 762H51V1036ZM565 1489H891V1464L585 1178H350L565 1489Z" />
<glyph unicode="&#xfe;" glyph-name="thorn" horiz-adv-x="1198" d="M28 1556H479V1018Q533 1045 588 1061T696 1077Q815 1077 915 1034T1087 916T1200 742T1241 530Q1241 417 1202 318T1091 144T922 27T707 -16Q583 -16 479 30V-197H704V-471H28V-197H172V1281H28V1556ZM686
786Q623 786 570 758T479 678V371Q511 323 564 294T684 264Q735 264 781 283T861 338T916 421T936 528Q936 587 916 635T862 716T783 768T686 786Z" />
<glyph unicode="&#xff;" glyph-name="ydieresis" horiz-adv-x="1241" d="M51 1036H559V762H479L628 374L781 762H692V1036H1200V762H1087L686 -197H864V-471H221V-197H402L480 0L156 762H51V1036ZM203 1343Q203 1380 216 1412T254 1469T310 1508T381 1522Q417
1522 449 1508T505 1470T543 1413T557 1343Q557 1306 543 1274T505 1217T449 1179T381 1165Q343 1165 311 1179T254 1217T217 1273T203 1343ZM682 1343Q682 1380 696 1412T734 1469T790 1508T861 1522Q897 1522 929 1508T985 1470T1023 1413T1037 1343Q1037 1306
1023 1274T985 1217T929 1179T861 1165Q823 1165 791 1179T734 1217T696 1273T682 1343Z" />
<glyph unicode="&#x2013;" glyph-name="endash" horiz-adv-x="1229" d="M102 733H1126V459H102V733Z" />
<glyph unicode="&#x2014;" glyph-name="emdash" horiz-adv-x="1843" d="M0 733H1843V459H0V733Z" />
<glyph unicode="&#x2018;" glyph-name="quoteleft" horiz-adv-x="530" d="M305 1651L510 1573L326 1004L20 1110L305 1651Z" />
<glyph unicode="&#x2019;" glyph-name="quoteright" horiz-adv-x="532" d="M205 1634L510 1528L225 987L20 1065L205 1634Z" />
<glyph unicode="&#x201c;" glyph-name="quotedblleft" horiz-adv-x="938" d="M737 1657L958 1573L743 989L459 1096L737 1657ZM274 1663L496 1571L254 999L-31 1106L274 1663Z" />
<glyph unicode="&#x201d;" glyph-name="quotedblright" horiz-adv-x="981" d="M215 995L-6 1079L209 1663L494 1556L215 995ZM678 989L457 1081L698 1653L983 1546L678 989Z" />
<glyph unicode="&#x201e;" glyph-name="quotedblbase" horiz-adv-x="981" d="M215 -392L-6 -308L209 276L494 169L215 -392ZM678 -398L457 -306L698 266L983 159L678 -398Z" />
<glyph unicode="&#x2022;" glyph-name="bullet" horiz-adv-x="1024" d="M180 778Q180 847 206 907T278 1011T383 1082T512 1108Q580 1108 640 1082T745 1012T816 907T842 778Q842 710 816 650T745 544T640 473T512 446Q444 446 384 472T278 544T207 649T180 778Z" />
<glyph unicode="&#x2039;" glyph-name="guilsinglleft" horiz-adv-x="598" d="M567 223H338L82 593V667L342 1036H565L354 630L567 223Z" />
<glyph unicode="&#x203a;" glyph-name="guilsinglright" horiz-adv-x="594" d="M244 630L33 1036H256L516 667V593L260 223H31L244 630Z" />
</font>
</defs>
</svg>
